img image001 image001 image001 image001 image001 image001 image001 image001 image001 image001 image001 image001 image001 image001 image001

Planets Sun Sun Sun
Статистика раздачи
Автор: Nickolas3434 | Размер: 743.37 МБ | Добавлен: 12 янв 2018
Раздают: 762    Качают: 33
Скачать торрент
Скачать торрент
Описание торрента

СообщениеДобавлено: 12 янв 2018 

Информация о фильме
Название: Счастливого дня смерти
Оригинальное название: Happy Death Day
Год выхода: 2017
Жанр: Триллер, ужасы, детектив
Режиссер: Кристофер Лэндон
В ролях: Джессика Рот, Израэль Бруссар, Руби Модин, Лаура Клифтон, Джейсон Бэйл, Роб Мелло, Рэйчел Мэттьюз, Ramsey Anderson, Brady Lewis, Фи Ву
О фильме :
У красавицы в которую влюблены все парни универа, на носу день рождение, на вечеринку мечтают попасть все. Но к сожалению праздник не состоялся, незнакомец в маске, убивает виновницу торжества. Судьба смиловалась над бедной девушкой и даровала ей бесконечный запас жизней, другими словами бессмертие. Чтобы этот злосчастный день не повторялся снова и снова, она отправляется на поиски своего убийцы, девушке нужно вычислить убийцу и дожить до рассвета, тогда временная петля будет разорвана и все станет на свои места.

Страна: США
Производство: Blumhouse Productions, Vesuvius Productions
Продолжительность: 01:36:11
Перевод : Профессиональный (многоголосый закадровый) AlexFilm
ВНИМАНИЕ! Присутствует ненормативная лексика.
Файл
Формат: MKV
Качество: HDRip-AVC
Видео: MPEG-4 AVC, 784x328, ~ 1006 Кбит/с
Аудио: AAC-LC, 2 ch, ~ 76 Кбит/с
Субтитры: Нет
Общее
Уникальный идентификатор : 236424075043406379258438999556047762233 (0xB1DD9EDDAD2FDF328459B2CD8A6FF339)
Полное имя : D:MOVIESHappy.Death.Day.2017.ExKinoRay.mkv
Формат : Matroska
Версия формата : Version 4 / Version 2
Размер файла : 743 Мбайт
Продолжительность : 1 ч. 36 м.
Общий поток : 1080 Кбит/сек
Дата кодирования : UTC 2018-01-08 16:10:00
Программа кодирования : mkvmerge v15.0.0 ('Duel with the Devil') 64-bit
Библиотека кодирования : libebml v1.3.5 + libmatroska v1.4.5
Видео
Идентификатор : 1
Формат : AVC
Формат/Информация : Advanced Video Codec
Профиль формата : [email protected]
Параметр CABAC формата : Да
Параметр RefFrames формата : 10 кадров
Идентификатор кодека : V_MPEG4/ISO/AVC
Продолжительность : 1 ч. 36 м.
Битрейт : 1006 Кбит/сек
Ширина : 784 пикселя
Высота : 328 пикселей
Соотношение сторон : 2,40:1
Режим частоты кадров : Постоянный
Частота кадров : 23,976 (24000/1001) кадра/сек
Цветовое пространство : YUV
Субдискретизация насыщенности : 4:2:0
Битовая глубина : 8 бит
Тип развёртки : Прогрессивная
Бит/(Пиксели*Кадры) : 0.163
Размер потока : 690 Мбайт (93%)
Библиотека кодирования : x264 core 152 r2851 ba24899
Настройки программы : cabac=1 / ref=10 / deblock=1:-3:-3 / analyse=0x3:0x133 / me=umh / subme=11 / psy=1 / psy_rd=1.00:0.15 / mixed_ref=1 / me_range=32 / chroma_me=1 / trellis=2 / 8x8dct=1 / cqm=0 / deadzone=21,11 / fast_pskip=0 / chroma_qp_offset=-3 / threads=6 / lookahead_threads=1 / sliced_threads=0 / nr=0 / decimate=0 / interlaced=0 / bluray_compat=0 / constrained_intra=0 / bframes=10 / b_pyramid=2 / b_adapt=2 / b_bias=0 / direct=3 / weightb=1 / open_gop=0 / weightp=2 / keyint=240 / keyint_min=23 / scenecut=40 / intra_refresh=0 / rc_lookahead=40 / rc=2pass / mbtree=0 / bitrate=1006 / ratetol=1.0 / qcomp=0.60 / qpmin=0 / qpmax=69 / qpstep=4 / cplxblur=20.0 / qblur=0.5 / vbv_maxrate=50000 / vbv_bufsize=62500 / nal_hrd=none / filler=0 / ip_ratio=1.40 / pb_ratio=1.30 / aq=1:1.00
Default : Да
Forced : Нет
Аудио
Идентификатор : 2
Формат : AAC
Формат/Информация : Advanced Audio Codec
Профиль формата : LC
Идентификатор кодека : A_AAC
Продолжительность : 1 ч. 36 м.
Битрейт : 76,0 Кбит/сек
Каналы : 2 канала
Расположение каналов : Front: L R
Частота : 48,0 КГц
Частота кадров : 46,875 кадров/сек (1024 SPF)
Метод сжатия : С потерями
Задержка видео : 9 мс.
Размер потока : 52,3 Мбайт (7%)
Default : Да
Forced : Нет
Меню
00:00:00.000 : en:00:00:00.000
00:04:54.461 : en:00:04:54.461
00:10:26.000 : en:00:10:26.000
00:14:10.683 : en:00:14:10.683
00:21:46.722 : en:00:21:46.722
00:25:08.799 : en:00:25:08.799
00:29:37.859 : en:00:29:37.859
00:33:09.321 : en:00:33:09.321
00:37:50.143 : en:00:37:50.143
00:41:46.170 : en:00:41:46.170
00:44:54.191 : en:00:44:54.191
00:53:07.935 : en:00:53:07.935
00:57:28.362 : en:00:57:28.362
01:00:18.448 : en:01:00:18.448
01:07:41.557 : en:01:07:41.557
01:12:16.290 : en:01:12:16.290
01:16:35.090 : en:01:16:35.090
01:21:17.081 : en:01:21:17.081
01:27:13.645 : en:01:27:13.645
01:30:24.169 : en:01:30:24.169



Релиз от:



   Похожие торренты   Торрент   Размер 
В этой теме нет новых непрочитанных сообщений. Счастливого дня смерти / Happy Death Day (2017) HDRip | P, L

1110 | 37

1.33 ГБ

В этой теме нет новых непрочитанных сообщений. Счастливого дня смерти / Happy Death Day (2017) HDRip от Scarabey | AlexFilm

242 | 29

1.4 ГБ

В этой теме нет новых непрочитанных сообщений. Счастливого дня смерти / Happy Death Day (2017) WEBRip | L

0 | 0

1.37 ГБ

В этой теме нет новых непрочитанных сообщений. Счастливого дня смерти / Happy Death Day (2017) HDTVRip | L

1 | 0

1.36 ГБ

В этой теме нет новых непрочитанных сообщений. Счастливого дня смерти / Happy Death Day (2017) HDTV 1080p | L

708 | 26

3.66 ГБ

В этой теме нет новых непрочитанных сообщений. Счастливого дня смерти / Happy Death Day (2017) BDRemux 1080p | P, L

0 | 0

24.3 ГБ

В этой теме нет новых непрочитанных сообщений. Счастливого дня смерти / Happy Death Day (2017) HDTV 720p | L

5 | 0

2.79 ГБ




Вы не можете начинать темы
Вы не можете отвечать на сообщения
Вы не можете редактировать свои сообщения
Вы не можете удалять свои сообщения
Вы не можете добавлять вложения

Перейти:  
Для Мосгорсуда, Роскомнадзора и рекламодателей: mosgorsud-torrent[собачка]yandex.ru
 Вход
ppkBB3cker v.2 © 2008-2014 @ PPK
[ Time : 0.041s | 21 Queries | GZIP : Off ]

cron