img image001 image001 image001 image001 image001 image001 image001 image001 image001 image001 image001 image001 image001 image001 image001

Planets Sun Sun Sun
Статистика раздачи
Автор: Nickolas3434 | Размер: 2.17 ГБ | Добавлен: 12 янв 2018
Раздают: 1078    Качают: 52
Скачать торрент
Скачать торрент
Описание торрента

СообщениеДобавлено: 12 янв 2018 




Анонсы 1080p от qqss44



Информация о фильме
Название: Бегущий по лезвию 2049
Оригинальное название: Blade Runner 2049
Год выхода: 2017
Жанр: Фантастика, триллер, драма, детектив
Режиссер: Дэни Вильнёв
В ролях: Райан Гослинг, Харрисон Форд, Ана де Армас, Джаред Лето, Сильвия Хукс, Дэйв Батиста, Робин Райт, Маккензи Дэвис, Карла Юри, Ленни Джеймс и другие
О фильме:
В недалеком будущем мир населен людьми и репликантами, созданными выполнять самую тяжелую работу. Работа офицера полиции Кей — держать репликантов под контролем в условиях нарастающего напряжения… Пока он случайно не становится обладателем секретной информации, которая ставит под угрозу существование всего человечества. Желая найти ключ к разгадке, Кей решает разыскать Рика Декарда, бывшего офицера специального подразделения полиции Лос-Анджелеса, который бесследно исчез много лет назад...

Страна: США, Великобритания, Канада, Венгрия
Студия: Sony, Columbia Pictures, Warner Bros, Alcon Entertainment
Продолжительность: 02:43:47
Перевод: Дублированный | Лицензия
Файл
Формат: MKV, BDRip-AVC
Видео: MPEG-4 AVC, 1444 Кбит/с, 1024x426
Aудио#1: [RUS] AC3 | 48 KHz | 5.1 (Front: L С R Side: L R) + LFE | ~448 kbps
Субтитры: русские форсированные (стилизованные, хардсаб), полные
Релиз от:


Общее
Уникальный идентификатор : 233903159578193791877369377761794976199 (0xAFF81C232EBAEC50B23FD1F34AABE9C7)
Полное имя : H:Blade.Runner.2049.(2017).BDRip-AVC.MegaPeer.(qqss44).mkv
Формат : Matroska
Версия формата : Version 2
Размер файла : 2,17 Гбайт
Продолжительность : 2 ч. 43 м.
Общий поток : 1894 Кбит/сек
Название фильма : Blade.Runner.2049.(2017).BDRip-AVC.MegaPeer.(qqss44)
Дата кодирования : UTC 2018-01-07 08:23:41
Программа кодирования : mkvmerge v5.8.0 ('No Sleep / Pillow') built on Sep 2 2012 15:37:04
Библиотека кодирования : libebml v1.2.3 + libmatroska v1.3.0
Видео
Идентификатор : 1
Формат : AVC
Формат/Информация : Advanced Video Codec
Профиль формата : [email protected]
Параметр CABAC формата : Да
Параметр ReFrames формата : 10 кадров
Идентификатор кодека : V_MPEG4/ISO/AVC
Продолжительность : 2 ч. 43 м.
Битрейт : 1444 Кбит/сек
Ширина : 1024 пикселя
Высота : 426 пикселей
Соотношение сторон : 2,40:1
Режим частоты кадров : Постоянный
Частота кадров : 23,976 (24000/1001) кадра/сек
Цветовое пространство : YUV
Субдискретизация насыщенности : 4:2:0
Битовая глубина : 8 бит
Тип развёртки : Прогрессивная
Бит/(Пиксели*Кадры) : 0.138
Размер потока : 1,61 Гбайт (74%)
Библиотека кодирования : x264 core 152 r2851kMod ba24899
Настройки программы : cabac=1 / ref=10 / deblock=1:-3:-3 / analyse=0x3:0x113 / me=umh / subme=11 / psy=1 / fade_compensate=0.00 / psy_rd=1.00:0.00 / mixed_ref=1 / me_range=32 / chroma_me=1 / trellis=2 / 8x8dct=1 / cqm=0 / deadzone=21,11 / fast_pskip=0 / chroma_qp_offset=-2 / threads=12 / lookahead_threads=3 / sliced_threads=0 / nr=0 / decimate=0 / interlaced=0 / bluray_compat=0 / constrained_intra=0 / bframes=10 / b_pyramid=2 / b_adapt=2 / b_bias=0 / direct=3 / weightb=1 / open_gop=0 / weightp=2 / keyint=240 / keyint_min=23 / scenecut=40 / intra_refresh=0 / rc_lookahead=40 / rc=2pass / mbtree=0 / bitrate=1444 / ratetol=1.0 / qcomp=0.70 / qpmin=0 / qpmax=69 / qpstep=4 / cplxblur=20.0 / qblur=0.5 / vbv_maxrate=50000 / vbv_bufsize=62500 / nal_hrd=none / filler=0 / ip_ratio=1.40 / pb_ratio=1.30 / aq=3:0.70
Язык : English
Default : Да
Forced : Нет
Аудио
Идентификатор : 2
Формат : AC-3
Формат/Информация : Audio Coding 3
Расширение режима : CM (complete main)
Параметр Endianness формата : Big
Идентификатор кодека : A_AC3
Продолжительность : 2 ч. 43 м.
Вид битрейта : Постоянный
Битрейт : 448 Кбит/сек
Каналы : 6 каналов
Расположение каналов : Front: L C R, Side: L R, LFE
Частота : 48,0 КГц
Частота кадров : 31,250 кадров/сек (1536 spf)
Метод сжатия : С потерями
Размер потока : 525 Мбайт (24%)
Язык : Russian
Default : Да
Forced : Нет
Текст
Идентификатор : 3
Формат : UTF-8
Идентификатор кодека : S_TEXT/UTF8
Идентификатор кодека/Информация : UTF-8 Plain Text
Язык : Russian
Default : Нет
Forced : Нет
Меню
00:00:00.000 : en:00:00:00.000
00:12:36.172 : en:00:12:36.172
00:23:29.283 : en:00:23:29.283
00:37:00.885 : en:00:37:00.885
00:42:50.318 : en:00:42:50.318
00:49:24.503 : en:00:49:24.503
00:58:35.554 : en:00:58:35.554
01:04:10.680 : en:01:04:10.680
01:15:47.293 : en:01:15:47.293
01:25:12.482 : en:01:25:12.482
01:36:15.061 : en:01:36:15.061
01:50:55.107 : en:01:50:55.107
02:01:36.873 : en:02:01:36.873
02:08:40.379 : en:02:08:40.379
02:16:42.486 : en:02:16:42.486
02:27:46.733 : en:02:27:46.733



   Похожие торренты   Торрент   Размер 
В этой теме нет новых непрочитанных сообщений. Бегущий по лезвию 2049 / Blade Runner 2049 (2017) BDRip 1080p от qqss44 & MegaPeer | Лицензия

3099 | 242

9.89 ГБ

В этой теме нет новых непрочитанных сообщений. Бегущий по лезвию 2049 / Blade Runner 2049 (2017) BDRip от MegaPeer | Лицензия

1235 | 121

2.91 ГБ

В этой теме нет новых непрочитанных сообщений. Бегущий по лезвию 2049 / Blade Runner 2049 (2017) BDRip 720p от k.e.n & MegaPeer | D | Лицензия

251 | 20

7.76 ГБ

В этой теме нет новых непрочитанных сообщений. Бегущий по лезвию 2049 / Blade Runner 2049 (2017) BDRip 720p от k.e.n & MegaPeer | D, L

282 | 59

7.76 ГБ

В этой теме нет новых непрочитанных сообщений. Бегущий по лезвию 2049 / Blade Runner 2049 (2017) WEB-DLRip от MegaPeer | iTunes

958 | 62

2.18 ГБ

В этой теме нет новых непрочитанных сообщений. Бегущий по лезвию 2049 / Blade Runner 2049 (2017) WEB-DLRip от MegaPeer | iTunes

10560 | 632

1.46 ГБ

В этой теме нет новых непрочитанных сообщений. Бегущий по лезвию 2049 / Blade Runner 2049 (2017) BDRip от ExKinoRay | Лицензия

248 | 15

2.19 ГБ




Вы не можете начинать темы
Вы не можете отвечать на сообщения
Вы не можете редактировать свои сообщения
Вы не можете удалять свои сообщения
Вы не можете добавлять вложения

Перейти:  
Для Мосгорсуда, Роскомнадзора и рекламодателей: mosgorsud-torrent[собачка]yandex.ru
 Вход
ppkBB3cker v.2 © 2008-2014 @ PPK
[ Time : 0.099s | 18 Queries | GZIP : Off ]

cron