img image001 image001 image001 image001 image001 image001 image001 image001 image001 image001 image001 image001 image001 image001 image001

Planets Sun Sun Sun
Статистика раздачи
Автор: Снежана | Размер: 304.79 МБ | Добавлен: 29 июл 2013
Раздают: 0    Качают: 1
Скачать торрент
Скачать торрент
Описание торрента

СообщениеДобавлено: 29 июл 2013 

#77

Название: OST. Личные предпочтения / Personal Preference / Personal Taste / Gae-in-eui chwi-hyang
Исполнитель: VA
Год: 2010
Жанр: Dorama, OST
Страна: Южная Корея

Продолжительность: 00:43:19
Формат/Кодек: FLAC
Тип рипа: tracks+.cue

Трэк-лист:

01. 말도 안돼 – 윤하 (Younha)
02. 빗물이 내려서 – 김태우 (Kim Tae Woo)
03. 가슴이 뭉클 - 씨야 (SeeYa)
04. 그대라는 날개 - 김태우 (Kim Tae Woo)
05. 사랑 만들기 - 포미닛 (4Minute)
06. 바보처럼 - 2AM
07. 왕벌들의 비행
08. 야릇한 느낌
09. 왕벌들의 비행(Piano Ver.)
10. 바보처럼 [Inst.]
11. 사랑 만들기 [Inst.] - Guitar Ver.
12. 그대라는 날개 [Inst.]
13. 가슴이 뭉클 [Inst.]
14. 빗물이 내려서 [Inst.] - Violin Ver.
15. 말도 안돼 [Inst.] – Piano Ver.

Exact Audio Copy V0.99 prebeta 5 from 4. May 2009

EAC extraction logfile from 28. April 2010, 17:01

Various / °іАОАЗ ГлЗв OST

Used drive : HL-DT-STDVDRAM GH10L Adapter: 1 ID: 0

Read mode : Secure
Utilize accurate stream : Yes
Defeat audio cache : Yes
Make use of C2 pointers : No

Read offset correction : 667
Overread into Lead-In and Lead-Out : No
Fill up missing offset samples with silence : Yes
Delete leading and trailing silent blocks : No
Null samples used in CRC calculations : Yes
Used interface : Native Win32 interface for Win NT & 2000
Gap handling : Appended to previous track

Used output format : User Defined Encoder
Selected bitrate : 128 kBit/s
Quality : High
Add ID3 tag : No
Command line compressor : C:Program FilesExact Audio CopyFLACFLAC.EXE
Additional command line options : -8 -V -T "ARTIST=%a" -T "TITLE=%t" -T "ALBUM=%g" -T "DATE=%y" -T "TRACKNUMBER=%n" -T "GENRE=%m" -T "COMMENT=EAC FLAC -8" %s

TOC of the extracted CD

Track | Start | Length | Start sector | End sector
---------------------------------------------------------
1 | 0:00.00 | 3:13.59 | 0 | 14533
2 | 3:13.59 | 3:43.15 | 14534 | 31273
3 | 6:56.74 | 3:38.50 | 31274 | 47673
4 | 10:35.49 | 3:53.33 | 47674 | 65181
5 | 14:29.07 | 3:35.53 | 65182 | 81359
6 | 18:04.60 | 3:14.32 | 81360 | 95941
7 | 21:19.17 | 1:21.63 | 95942 | 102079
8 | 22:41.05 | 1:43.71 | 102080 | 109875
9 | 24:25.01 | 1:20.13 | 109876 | 115888
10 | 25:45.14 | 3:13.07 | 115889 | 130370
11 | 28:58.21 | 3:34.74 | 130371 | 146494
12 | 32:33.20 | 3:52.70 | 146495 | 163964
13 | 36:26.15 | 3:37.48 | 163965 | 180287
14 | 40:03.63 | 3:45.04 | 180288 | 197166
15 | 43:48.67 | 3:12.08 | 197167 | 211574

Track 1

Filename D:Music\01 - А±ЗП - ё»µµ ѕИµЕ.wav

Pre-gap length 0:00:02.00

Peak level 100.0 %
Track quality 100.0 %
Test CRC 0C7E0899
Copy CRC 0C7E0899
Copy OK

Track 2

Filename D:Music\02 - ±иЕВїм - єш№°АМ і»·Бј.wav

Pre-gap length 0:00:01.45

Peak level 100.0 %
Track quality 100.0 %
Test CRC 27E84C54
Copy CRC 27E84C54
Copy OK

Track 3

Filename D:Music\03 - ѕѕѕЯ - °ЎЅїАМ №¶Е¬.wav

Pre-gap length 0:00:01.49

Peak level 100.0 %
Track quality 100.0 %
Test CRC 9CE1FFDF
Copy CRC 9CE1FFDF
Copy OK

Track 4

Filename D:Music\04 - ±иЕВїм - ±Чґл¶уґВ іЇ°і.wav

Pre-gap length 0:00:02.17

Peak level 100.0 %
Track quality 99.9 %
Test CRC 400B7B6B
Copy CRC 400B7B6B
Copy OK

Track 5

Filename D:Music\05 - Жч№МґЦ - »з¶ыёёµй±в.wav

Pre-gap length 0:00:01.67

Peak level 100.0 %
Track quality 100.0 %
Test CRC 6E0FAAD0
Copy CRC 6E0FAAD0
Copy OK

Track 6

Filename D:Music\06 - 2AM - №ЩєёГі·і.wav

Pre-gap length 0:00:01.43

Peak level 100.0 %
Track quality 100.0 %
Test CRC 9F46BCB3
Copy CRC 9F46BCB3
Copy OK

Track 7

Filename D:Music\07 - їХ№ъАЗ єсЗа -.wav

Pre-gap length 0:00:02.01

Peak level 99.1 %
Track quality 100.0 %
Test CRC E67CD0D3
Copy CRC E67CD0D3
Copy OK

Track 8

Filename D:Music\08 - ѕЯё©ЗС ґАі¦ -.wav

Pre-gap length 0:00:01.63

Peak level 99.9 %
Track quality 99.8 %
Test CRC E4B872E7
Copy CRC E4B872E7
Copy OK

Track 9

Filename D:Music\09 - їХ№ъАЗ єсЗа (Piano Ver) -.wav

Pre-gap length 0:00:01.48

Peak level 98.9 %
Track quality 100.0 %
Test CRC 956A4815
Copy CRC 956A4815
Copy OK

Track 10

Filename D:Music10 - №ЩєёГі·і [Inst.] -.wav

Pre-gap length 0:00:01.59

Peak level 100.0 %
Track quality 100.0 %
Test CRC A7BA77A2
Copy CRC A7BA77A2
Copy OK

Track 11

Filename D:Music11 - »з¶ыёёµй±в [Inst.] - Guitar Ver. -.wav

Pre-gap length 0:00:01.33

Peak level 100.0 %
Track quality 100.0 %
Test CRC 70CD406C
Copy CRC 70CD406C
Copy OK

Track 12

Filename D:Music12 - ±Чґл¶уґВ іЇ°і [Inst.] -.wav

Pre-gap length 0:00:01.32

Peak level 100.0 %
Track quality 100.0 %
Test CRC E3DA2837
Copy CRC E3DA2837
Copy OK

Track 13

Filename D:Music13 - °ЎЅїАМ №¶Е¬ [Inst.] -.wav

Pre-gap length 0:00:01.66

Peak level 100.0 %
Track quality 100.0 %
Test CRC 94838D2A
Copy CRC 94838D2A
Copy OK

Track 14

Filename D:Music14 - єш№°АМ і»·Бј [Inst.] - Violin Ver. -.wav

Pre-gap length 0:00:01.34

Peak level 100.0 %
Track quality 100.0 %
Test CRC 5D8E0143
Copy CRC 5D8E0143
Copy OK

Track 15

Filename D:Music15 - ё»µµ ѕИµЕ [Inst.] - Piano Ver. -.wav

Pre-gap length 0:00:01.72

Peak level 100.0 %
Track quality 100.0 %
Test CRC 6B9683DE
Copy CRC 6B9683DE
Copy OK

No errors occurred

End of status report

Личные предпочтения / Personal Preference / Personal Taste / Gae-in-eui chwi-hyang (2010) HDTVRip



   Похожие торренты   Торрент   Размер 
В этой теме нет новых непрочитанных сообщений. Личные предпочтения / Personal Preference / Personal Taste / Gae-in-eui chwi-hyang (2010) HDTVRip | SUB

5 | 5

12.45 ГБ

В этой теме нет новых непрочитанных сообщений. Личные предпочтения / Personal Preference / Personal Taste / Gae-in-eui chwi-hyang (2010) HDTVRip

12 | 11

13.8 ГБ

В этой теме нет новых непрочитанных сообщений. Демонические игрушки: Личные демоны / Demonic Toys: Personal Demons (2010) DVDRip-AVC

0 | 2

1.51 ГБ

В этой теме нет новых непрочитанных сообщений. Демонические игрушки: Личные демоны / Demonic Toys: Personal Demons (2010) DVDRip

2 | 2

684.9 МБ

В этой теме нет новых непрочитанных сообщений. Демонические игрушки: Личные демоны / Demonic Toys: Personal Demons (2010) DVDRip от F-Torrent

1 | 3

1.37 ГБ

В этой теме нет новых непрочитанных сообщений. Personal Video Database (2010) PC

0 | 2

10.82 МБ

В этой теме нет новых непрочитанных сообщений. Nina Hagen - Personal Jesus (2010) MP3

2 | 1

98.92 МБ




Вы не можете начинать темы
Вы не можете отвечать на сообщения
Вы не можете редактировать свои сообщения
Вы не можете удалять свои сообщения
Вы не можете добавлять вложения

Перейти:  
Для Мосгорсуда, Роскомнадзора и рекламодателей: mosgorsud-torrent[собачка]yandex.ru
 Вход
ppkBB3cker v.2 © 2008-2014 @ PPK
[ Time : 0.063s | 18 Queries | GZIP : Off ]

cron