img image001 image001 image001 image001 image001 image001 image001 image001 image001 image001 image001 image001 image001 image001 image001

Planets Sun Sun Sun
Статистика раздачи
Автор: Nickolas3434 | Размер: 14.89 ГБ | Добавлен: 30 апр 2017
Раздают: 273    Качают: 32
Скачать торрент
Скачать торрент
Описание торрента

СообщениеДобавлено: 30 апр 2017 

Информация о фильме
Название: Защитники
Год выхода: 2017
Жанр: Фантастика, фэнтези, боевик, приключения
Режиссер: Сарик Андреасян
В ролях: Антон Пампушный, Санжар Мади, Себастьян Сисак, Алина Кизиярова-Ланина, Станислав Ширин, Валерия Шкирандо, Вячеслав Разбегаев, Александр Семенов, Владимир Бутенко, Мила Максимова
О фильме:
Во времена Холодной войны секретная организация «Патриот» создала отряд супергероев, в который вошли участники из различных советских республик. Долгие годы героям приходилось скрывать свою сущность, однако в тяжелые для страны времена они вновь берутся за дело.

Страна: Россия
Студия: Enjoy Movies
Продолжительность: 01:28:57
Перевод: Не требуется | Лицензия
Семпл:
Файл
Кодек: MPEG-4
Качество: BDRemux 1080
Видео: 1920x1080 (16:9), 24 fps, MPEG-4 AVC Video ~19005 kbps avg, High Profile 4.0
Звук:
Aудио#1: AC3 Master Audio Russian 48 kHz, AC3, 3/2 (L,C,R,l,r) + LFE ch, ~640 kbps avg
Aудио#2: DTS-HD Master Audio Russian 4310 kbps 5.1 / 48 kHz / 4310 kbps / 24-bit (DTS Core: 5.1 / 48 kHz / 1509 kbps / 24-bit)
Субтитры: нет
Zashitniki.2016.1080p.Blu-Ray.Remux.AVC.2xRus-Womanizer0.mkv
Format : Matroska
Format version : Version 4 / Version 2
File size : 14.9 GiB
Duration : 1 h 28 min
Overall bit rate mode : Variable
Overall bit rate : 24.0 Mb/s
Movie name : Womanizer0
Encoded date : UTC 2017-04-21 07:19:44
Writing application : mkvmerge v10.0.0 ('To Drown In You') 64bit
Writing library : libebml v1.3.4 + libmatroska v1.4.5
Video
ID : 1
Format : AVC
Format/Info : Advanced Video Codec
Format profile : [email protected]
Format settings, CABAC : Yes
Format settings, ReFrames : 2 frames
Format settings, GOP : M=2, N=13
Codec ID : V_MPEG4/ISO/AVC
Duration : 1 h 28 min
Bit rate mode : Variable
Bit rate : 19.0 Mb/s
Maximum bit rate : 22.0 Mb/s
Width : 1 920 pixels
Height : 1 080 pixels
Display aspect ratio : 16:9
Frame rate mode : Constant
Frame rate : 24.000 FPS
Color space : YUV
Chroma subsampling : 4:2:0
Bit depth : 8 bits
Scan type : Progressive
Bits/(Pixel*Frame) : 0.382
Stream size : 11.8 GiB (79%)
Title : Womanizer0
Language : Russian
Default : Yes
Forced : No
Audio #1
ID : 2
Format : AC-3
Format/Info : Audio Coding 3
Mode extension : CM (complete main)
Format settings, Endianness : Big
Codec ID : A_AC3
Duration : 1 h 28 min
Bit rate mode : Constant
Bit rate : 640 kb/s
Channel(s) : 6 channels
Channel positions : Front: L C R, Side: L R, LFE
Sampling rate : 48.0 kHz
Frame rate : 31.250 FPS (1536 spf)
Bit depth : 16 bits
Compression mode : Lossy
Stream size : 407 MiB (3%)
Title : AC3 5.1 @ 640 Kbps
Language : Russian
Default : Yes
Forced : No
Audio #2
ID : 3
Format : DTS
Format/Info : Digital Theater Systems
Format profile : MA / Core
Mode : 16
Format settings, Endianness : Big
Codec ID : A_DTS
Duration : 1 h 28 min
Bit rate mode : Variable / Constant
Bit rate : 4 310 kb/s / 1 509 kb/s
Channel(s) : 6 channels
Channel positions : Front: L C R, Side: L R, LFE
Sampling rate : 48.0 kHz
Frame rate : 93.750 FPS (512 spf)
Bit depth : 24 bits
Compression mode : Lossless / Lossy
Stream size : 2.68 GiB (18%)
Title : DTS-HD MA 5.1 @ 4310 Kbps
Language : Russian
Default : No
Forced : No




   Похожие торренты   Торрент   Размер 
В этой теме нет новых непрочитанных сообщений. Защитники (2017) BDRip 1080p | Лицензия

1051 | 64

8.24 ГБ

В этой теме нет новых непрочитанных сообщений. Защитники (2017) HDRip | Лицензия

328 | 5

1.37 ГБ

В этой теме нет новых непрочитанных сообщений. Защитники (2017) HDRip | КПК | Лицензия

57 | 1

401.91 МБ

В этой теме нет новых непрочитанных сообщений. Защитники (2017) BDRip от ExKinoRay | Лицензия

719 | 32

1.46 ГБ

В этой теме нет новых непрочитанных сообщений. Защитники (2017) BDRip от HQCLUB | Лицензия

433 | 29

1.45 ГБ

В этой теме нет новых непрочитанных сообщений. Защитники (2017) WEB-DL 1080p | iTunes

83 | 1

3.05 ГБ

В этой теме нет новых непрочитанных сообщений. Защитники (2017) WEB-DL 1080p | iTunes

1611 | 17

3.05 ГБ




Вы не можете начинать темы
Вы не можете отвечать на сообщения
Вы не можете редактировать свои сообщения
Вы не можете удалять свои сообщения
Вы не можете добавлять вложения

Перейти:  
Для Мосгорсуда, Роскомнадзора и рекламодателей: mosgorsud-torrent[собачка]yandex.ru
 Вход
ppkBB3cker v.2 © 2008-2014 @ PPK
[ Time : 0.039s | 17 Queries | GZIP : Off ]

cron