img image001 image001 image001 image001 image001 image001 image001 image001 image001 image001 image001 image001 image001 image001 image001

Planets Sun Sun Sun
Статистика раздачи
Автор: Снежана | Размер: 1.47 ГБ | Добавлен: 23 июл 2013
Раздают: 15    Качают: 2
Скачать торрент
Скачать торрент
Описание торрента

СообщениеДобавлено: 23 июл 2013 

#77

На цепи / Chained

Год выхода: 2012
Страна: США
Жанр: ужасы, триллер
Продолжительность: 01:34:10

Перевод: Профессиональный (многоголосый закадровый) (BaibaKo)
Субтитры: русские, английские (отдельно на яндекс.диск)

Режиссёр: Дженнифер Чэмберс Линч / Jennifer Chambers Lynch

В ролях: Винсент Д’Онофрио (Bob), Имон Фэррен (Older Rabbit), Ивэн Бёрд (Younger Rabbit), Джулия Ормонд (Sarah Fittler), Конор Лесли (Angie), Джейк Уэбер (Brad Fittler), Джина Филипс (Marie), Дэниэл Маслани (Young Bob), Бенжамин ДеУолт (Son), Линдон Брэй (Nasty Father), Майкл Маслани (Young Brad), Кейт Хэрриот (The Runner)

О фильме: Восьмилетний паренек Тим и его мать подсаживаются в такси к Бобу - невменяемому водителю, как раз подыскивающего себе новую жертву. После убийства женщины Тим становится марионеткой в руках психа, вынуждающего его хоронить тела. Хватит ли подростку мужества разорвать ужасную связь судьбы, все крепче стягивающую его с убийцей...



MPAA: NC-17 - Лицам до 17 лет просмотр запрещен

Автор рипа: GuNNeR

Качество видео: BDRip [BDRemux 1080p]
Формат: AVI
Видео: XviD, 720x304 (2.35:1), 23.976 fps, ~1835 kbps, 0.350 bpp
Аудио: Русский: AC3, 48 kHz, 3/2 (L,C,R,l,r) + LFE ch, 16 bit, 384 kbps

Перевод: Lub_a
Озвучка: Татьяна Оболевич, Лира Грим, Дим Димыч и Сергей Корчак
Сведение: Vitall Digitall
Первоначально фильм получил рейтинг NC-17 от MPAA за «несколько сцен откровенного насилия», но позже фильм был отредактирован для получения рейтинга R за «особо волнующие и садистские сцены насилия, включая кровавые убийства и изнасилования, а так же за грубые выражения и повышенную сексуальность».
Дженнифер Чэмберс Линч и Винсент Д’Онофрио заявили, что они предпочли бы, чтобы название этого фильма было «Rabbit» (Кролик).
В сцене, где Боб бросает камни в Рэбита, Винсент Д’Онофрио на самом деле кидал губки в форме камней в Ивэна Бёрда.
[*]Камео режиссера - Дженнифер Чэмберс Линч сыграла в фильме ведущую кулинарного шоу на ТВ.
General
Complete name : J:torrentsChained 2012Chained.2012.BDRip.MVO.BaibaKo.avi
Format : AVI
Format/Info : Audio Video Interleave
File size : 1.47 GiB
Duration : 1h 34mn
Overall bit rate : 2 229 Kbps
Writing application : VirtualDubMod 1.5.10.3 | www.virtualdub-fr.org || (build 2550/release)
Writing library : VirtualDubMod build 2550/release

Video
ID : 0
Format : MPEG-4 Visual
Format profile : Advanced [email protected]
Format settings, BVOP : 1
Format settings, QPel : No
Format settings, GMC : No warppoints
Format settings, Matrix : Custom
Codec ID : XVID
Codec ID/Hint : XviD
Duration : 1h 34mn
Bit rate : 1 835 Kbps
Width : 720 pixels
Height : 304 pixels
Display aspect ratio : 2.35:1
Frame rate : 23.976 fps
Color space : YUV
Chroma subsampling : 4:2:0
Bit depth : 8 bits
Scan type : Progressive
Compression mode : Lossy
Bits/(Pixel*Frame) : 0.350
Stream size : 1.21 GiB (82%)
Writing library : XviD 65

Audio
ID : 1
Format : AC-3
Format/Info : Audio Coding 3
Mode extension : CM (complete main)
Codec ID : 2000
Duration : 1h 34mn
Bit rate mode : Constant
Bit rate : 384 Kbps
Channel(s) : 6 channels
Channel positions : Front: L C R, Side: L R, LFE
Sampling rate : 48.0 KHz
Bit depth : 16 bits
Compression mode : Lossy
Stream size : 259 MiB (17%)
Alignment : Split accross interleaves
Interleave, duration : 42 ms (1.00 video frame)
Interleave, preload duration : 500 ms





   Похожие торренты   Торрент   Размер 
В этой теме нет новых непрочитанных сообщений. На цепи / Chained (2012) BDRip | Baibako

2 | 2

1.75 ГБ

В этой теме нет новых непрочитанных сообщений. На цепи / Chained (2012) BDRip | BaibaKo

0 | 2

745.07 МБ

В этой теме нет новых непрочитанных сообщений. На цепи / Chained (2012) BDRip от Youtracker | Baibako

10 | 2

750.24 МБ

В этой теме нет новых непрочитанных сообщений. На цепи / Chained (2012) BDRip 720p | Baibako

2 | 2

3.38 ГБ

В этой теме нет новых непрочитанных сообщений. На цепи / Chained (2012) BDRip от Youtracker | Baibako

8 | 3

1.45 ГБ

В этой теме нет новых непрочитанных сообщений. На цепи / Chained (2012) HDRip-AVC от ExKinoRay | BaibaKo

32 | 2

745.52 МБ

В этой теме нет новых непрочитанных сообщений. На цепи / Chained (2012) HDRip от Torrent-Xzona | КПК | Baibako

6 | 2

350.08 МБ




Вы не можете начинать темы
Вы не можете отвечать на сообщения
Вы не можете редактировать свои сообщения
Вы не можете удалять свои сообщения
Вы не можете добавлять вложения

Перейти:  
Для Мосгорсуда, Роскомнадзора и рекламодателей: mosgorsud-torrent[собачка]yandex.ru
 Вход
ppkBB3cker v.2 © 2008-2014 @ PPK
[ Time : 0.054s | 18 Queries | GZIP : Off ]

cron