img image001 image001 image001 image001 image001 image001 image001 image001 image001 image001 image001 image001 image001 image001 image001

Planets Sun Sun Sun
Статистика раздачи
Автор: Nickolas3434 | Размер: 1.46 ГБ | Добавлен: 12 янв 2018
Раздают: 23    Качают: 0
Скачать торрент
Скачать торрент
Описание торрента

СообщениеДобавлено: 12 янв 2018 

✦ Фарфоровая луна / China Moon ✦

Информация о фильме:
❖ Год выпуска: 1991
❖ Страна: США / Tig Productions
❖ Жанр: триллер, мелодрама, криминал, детектив
❖ Перевод: Профессиональный (двухголосый, закадровый) | [НТВ+]
❖ Продолжительность: 01:39:56
❖ Режиссер: Джон Бэйли
❖ В ролях: Эд Харрис, Мэделин Стоу, Бенисио Дель Торо, Чарльз Дэнс, Патриция Хили, Тим Пауэлл, Прюитт Тэйлор Винс, Ларри Шулер, Роб Эдвард Моррис, Пол Дэрби, Тереза Бин, Аллен Принц, Сэм Майерс, Роб Кох
❖ Релиз от:
❖ Автор рипа: ProT1gR
Описание фильма:
Полицейский влюбляется в замужнюю женщину, у которой очень плохие отношения с мужем. Муж изменял ей, оскорблял ее, бил, она дважды пыталась развестись с ним. Наконец-то решилась бесповоротно, и вместе с новым возлюбленным поехала домой за вещами. И тут неожиданно пришел благоверный. Между супругами вспыхнула ссора. Он швырнул ее об стену, она выхватила пистолет и выпустила в мужа две пули. Полицейский вынужден помочь ей избавиться от тела и улик и вскоре уже выступать следователем как бы своего собственного преступления.

Технические данные файла:
❖ Качество: HDRip-AVC (Исх. BDRip 720p)
❖ Формат: MKV
❖ Видео: 1024x440 (2.35:1), 23.976 fps, MPEG-4 AVC ~ 1780 kbps (0.175 bit/pixel)
❖ Аудио: AC3, 48.0 KHz, 2 ch, 192 kbps
General
Unique ID : 176589293484609501305708657588476144669 (0x84D9DC5E91D9AA8FA0187B2972C56C1D)
Complete name : China.Moon.(1991).HDRip-AVC.[Kaztorrents].mkv
Format : Matroska
Format version : Version 2
File size : 1.46 GiB
Duration : 1 h 39 min
Overall bit rate : 2 089 kb/s
Encoded date : UTC 2018-01-10 23:13:21
Writing application : mkvmerge v7.8.0 ('River Man') 32bit built on Apr 3 2015 12:11:22
Writing library : libebml v1.3.1 + libmatroska v1.4.2
Video
ID : 1
Format : AVC
Format/Info : Advanced Video Codec
Format profile : [email protected]
Format settings, CABAC : Yes
Format settings, ReFrames : 12 frames
Codec ID : V_MPEG4/ISO/AVC
Duration : 1 h 39 min
Bit rate : 1 895 kb/s
Width : 1 024 pixels
Height : 440 pixels
Display aspect ratio : 2.35:1
Frame rate mode : Constant
Frame rate : 23.976 (24000/1001) FPS
Color space : YUV
Chroma subsampling : 4:2:0
Bit depth : 8 bits
Scan type : Progressive
Bits/(Pixel*Frame) : 0.175
Stream size : 1.29 GiB (89%)
Writing library : x264 core 146 r2538 121396c
Encoding settings : cabac=1 / ref=12 / deblock=1:-3:-3 / analyse=0x3:0x113 / me=umh / subme=11 / psy=1 / psy_rd=1.00:0.00 / mixed_ref=1 / me_range=48 / chroma_me=1 / trellis=2 / 8x8dct=1 / cqm=0 / deadzone=21,11 / fast_pskip=0 / chroma_qp_offset=-2 / threads=6 / lookahead_threads=1 / sliced_threads=0 / nr=0 / decimate=0 / interlaced=0 / bluray_compat=0 / constrained_intra=0 / bframes=12 / b_pyramid=2 / b_adapt=2 / b_bias=0 / direct=3 / weightb=1 / open_gop=0 / weightp=2 / keyint=240 / keyint_min=23 / scenecut=40 / intra_refresh=0 / rc_lookahead=40 / rc=2pass / mbtree=0 / bitrate=1895 / ratetol=1.0 / qcomp=0.60 / qpmin=0 / qpmax=69 / qpstep=4 / cplxblur=20.0 / qblur=0.5 / vbv_maxrate=50000 / vbv_bufsize=62500 / nal_hrd=none / filler=0 / ip_ratio=1.40 / pb_ratio=1.30 / aq=1:1.10
Default : Yes
Forced : No
Audio
ID : 2
Format : AC-3
Format/Info : Audio Coding 3
Mode extension : CM (complete main)
Format settings, Endianness : Big
Codec ID : A_AC3
Duration : 1 h 39 min
Bit rate mode : Constant
Bit rate : 192 kb/s
Channel(s) : 2 channels
Channel positions : Front: L R
Sampling rate : 48.0 kHz
Frame rate : 31.250 FPS (1536 spf)
Bit depth : 16 bits
Compression mode : Lossy
Stream size : 137 MiB (9%)
Default : Yes
Forced : No





   Похожие торренты   Торрент   Размер 
В этой теме нет новых непрочитанных сообщений. Фарфоровая луна / China Moon (1991) DVDRip

6 | 3

837.59 МБ

В этой теме нет новых непрочитанных сообщений. Фарфоровая луна / China Moon (1991) HDTV 1080i | P2

32 | 2

3.61 ГБ

В этой теме нет новых непрочитанных сообщений. Фарфоровая луна / China Moon (1991) BDRip 720p | P2, A, L1

5 | 1

5.22 ГБ

В этой теме нет новых непрочитанных сообщений. Фарфоровая луна / China Moon (1991) BDRemux 1080р | P2, A, L1

15 | 5

18.07 ГБ

В этой теме нет новых непрочитанных сообщений. Фарфоровая луна / China Moon (1991) BDRip от Koenig | P2

0 | 0

1.45 ГБ

В этой теме нет новых непрочитанных сообщений. Фарфоровая луна / China Moon (1994) DVD5 | A

0 | 2

4.3 ГБ

В этой теме нет новых непрочитанных сообщений. Фарфоровая луна / China Moon (1994) DVDRip от SergV

13 | 11

1.47 ГБ




Вы не можете начинать темы
Вы не можете отвечать на сообщения
Вы не можете редактировать свои сообщения
Вы не можете удалять свои сообщения
Вы не можете добавлять вложения

Перейти:  
Для Мосгорсуда, Роскомнадзора и рекламодателей: mosgorsud-torrent[собачка]yandex.ru
 Вход
ppkBB3cker v.2 © 2008-2014 @ PPK
[ Time : 3.372s | 18 Queries | GZIP : Off ]

cron