img image001 image001 image001 image001 image001 image001 image001 image001 image001 image001 image001 image001 image001 image001 image001

Planets Sun Sun Sun
Статистика раздачи
Автор: Nickolas3434 | Размер: 47.26 ГБ | Добавлен: 12 янв 2018
Раздают: 9    Качают: 12
Скачать торрент
Скачать торрент
Описание торрента

СообщениеДобавлено: 12 янв 2018 

Производство: США / Chernin Entertainment, Ingenious Media, TSG Entertainment
Жанр: фантастика, боевик, драма
Режиссер: Мэтт Ривз
Продюсер: Питер Чернин, Дилан Кларк, Рик Джаффа
Актеры: Энди Серкис, Джейсон Кларк, Гари Олдман, Кери Рассел, Тоби Кеббелл, Коди, Смит-МакФи, Кирк Асеведо, Ник Тёрстон, Терри Нотари, Карин Коновал
Описание:
Численность генетически модифицированных обезьян, возглавляемых Цезарем, продолжает увеличиваться, но обезьянам угрожают люди, которым удалось выжить во время ужасной эпидемии десятилетней давности. Поначалу между соперниками устанавливается хрупкий мир, но он оказывается недолговечным. Обезьяны и люди находятся на грани войны, в ходе которой станет понятно, кто из них в будущем станет безраздельно править планетой.

Релиз от: JATO, BLUEBIRD
Продолжительность: 02:10:24
Качество: UHD BDRemux (HDR)
Перевод: Дублированный (Лицензия BD CEE), Авторский (одноголосый, закадровый) (Ю. Живов, Д. Есарев)
Субтитры: Английские (Full-length), Русские (Full-length, Forced), Украинские (Full-length, Forced)
Видео: HEVC/H.265, 3840x2160p, (16:9), 35.0 Mb/s, 23.976 fps
Аудио 1: DTS, 6 ch, 768 kbps - Русский, Дубляж
Аудио 2: AC3, 6 ch, 448 kbps - Украинский
Аудио 3: DTS-HD MA, 8 ch, 5127 kbps - Русский, Ю. Живов
Аудио 4: DTS-HD MA, 8 ch, 5106 kbps - Русский, Д. Есарев
Аудио 5: DTS-HD MA, 8 ch, 5102 kbps - Английский
Аудио 6: AC3, 2 ch, 224 kbps - Английский, Комментарии
General
Unique ID : 213022595502953434122545497091124847453 (0xA042A8D855F8DC318C9424721069635D)
Complete name : DAWN_O_T_PLANET_O_T_APES_BD_UHD_HDR_REMUX-BLUEBIRD.mkv
Format : Matroska
Format version : Version 4 / Version 2
File size : 47.3 GiB
Duration : 2 h 10 min
Overall bit rate : 51.9 Mb/s
Movie name : DAWN_O_T_PLANET_O_T_APES_BD_UHD_HDR_REMUX-BLUEBIRD
Encoded date : UTC 2017-11-23 17:45:53
Writing application : mkvmerge v16.0.0 ('Protest') 64-bit
Writing library : libebml v1.3.5 + libmatroska v1.4.8
Cover : Yes
Attachments : cover.png
Video
ID : 1
Format : HEVC
Format/Info : High Efficiency Video Coding
Format profile : Main [email protected]@High
Codec ID : V_MPEGH/ISO/HEVC
Duration : 2 h 10 min
Bit rate : 35.0 Mb/s
Width : 3 840 pixels
Height : 2 160 pixels
Display aspect ratio : 16:9
Frame rate mode : Constant
Frame rate : 23.976 (24000/1001) FPS
Color space : YUV
Chroma subsampling : 4:2:0 (Type 2)
Bit depth : 10 bits
Bits/(Pixel*Frame) : 0.176
Stream size : 31.8 GiB (67%)
Title : DAWN_O_T_PLANET_O_T_APES_BD_UHD_HDR_REMUX-BLUEBIRD
Writing library : ATEME Titan File 3.7.8 (4.7.8.0)
Default : Yes
Forced : No
Color range : Limited
Color primaries : BT.2020
Transfer characteristics : SMPTE ST 2084
Matrix coefficients : BT.2020 non-constant
Mastering display color primaries : R: x=0.680000 y=0.320000, G: x=0.265000 y=0.690000, B: x=0.150000 y=0.060000, White point: x=0.312700 y=0.329000
Mastering display luminance : min: 0.0000 cd/m2, max: 1000.0000 cd/m2
Audio #1
ID : 2
Format : DTS
Format/Info : Digital Theater Systems
Mode : 16
Format settings, Endianness : Big
Codec ID : A_DTS
Duration : 2 h 10 min
Bit rate mode : Constant
Bit rate : 768 kb/s
Channel(s) : 6 channels
Channel positions : Front: L C R, Side: L R, LFE
Sampling rate : 48.0 kHz
Frame rate : 93.750 FPS (512 SPF)
Bit depth : 24 bits
Compression mode : Lossy
Stream size : 716 MiB (1%)
Title : [DUB] DTS 5.1 @ 768 kbps
Language : Russian
Default : Yes
Forced : No
Audio #2
ID : 3
Format : AC-3
Format/Info : Audio Coding 3
Format settings, Endianness : Big
Codec ID : A_AC3
Duration : 2 h 10 min
Bit rate mode : Constant
Bit rate : 448 kb/s
Channel(s) : 6 channels
Channel positions : Front: L C R, Side: L R, LFE
Sampling rate : 48.0 kHz
Frame rate : 31.250 FPS (1536 SPF)
Bit depth : 16 bits
Compression mode : Lossy
Stream size : 418 MiB (1%)
Title : [DUB] DD 5.1 @ 448 kbps
Language : Ukrainian
Service kind : Complete Main
Default : No
Forced : No
Audio #3
ID : 4
Format : DTS
Format/Info : Digital Theater Systems
Format profile : MA / Core
Mode : 16
Format settings, Endianness : Big
Codec ID : A_DTS
Duration : 2 h 10 min
Bit rate mode : Variable / Constant
Bit rate : 5 127 kb/s / 1 509 kb/s
Channel(s) : 8 channels / 6 channels
Channel positions : Front: L C R, Side: L R, Back: L R, LFE / Front: L C R, Side: L R, LFE
Sampling rate : 48.0 kHz
Frame rate : 93.750 FPS (512 SPF)
Bit depth : 24 bits
Compression mode : Lossless / Lossy
Stream size : 4.67 GiB (10%)
Title : [VO] DTS-HD MA 7.1 @ 5127 kbps (Y. Zhyvov)
Language : Russian
Default : No
Forced : No
Audio #4
ID : 5
Format : DTS
Format/Info : Digital Theater Systems
Format profile : MA / Core
Mode : 16
Format settings, Endianness : Big
Codec ID : A_DTS
Duration : 2 h 10 min
Bit rate mode : Variable / Constant
Bit rate : 5 106 kb/s / 1 509 kb/s
Channel(s) : 8 channels / 6 channels
Channel positions : Front: L C R, Side: L R, Back: L R, LFE / Front: L C R, Side: L R, LFE
Sampling rate : 48.0 kHz
Frame rate : 93.750 FPS (512 SPF)
Bit depth : 24 bits
Compression mode : Lossless / Lossy
Stream size : 4.65 GiB (10%)
Title : [VO] DTS-HD MA 7.1 @ 5107 kbps (D.Esarevv)
Language : Russian
Default : No
Forced : No
Audio #5
ID : 6
Format : DTS
Format/Info : Digital Theater Systems
Format profile : MA / ES Matrix / Core
Mode : 16
Format settings, Endianness : Big
Codec ID : A_DTS
Duration : 2 h 10 min
Bit rate mode : Variable / Constant / Constant
Bit rate : 5 102 kb/s / 1 509 kb/s / 1 509 kb/s
Channel(s) : 8 channels / 7 channels / 6 channels
Channel positions : Front: L C R, Side: L R, Back: L R, LFE / Front: L C R, Side: L R, Back: C, LFE / Front: L C R, Side: L R, LFE
Sampling rate : 48.0 kHz
Frame rate : 93.750 FPS (512 SPF)
Bit depth : 24 bits
Compression mode : Lossless / Lossy / Lossy
Stream size : 4.65 GiB (10%)
Title : [ORIGINAL] DTS-HD MA 7.1 @ 5102 kbps
Language : English
Default : No
Forced : No
Audio #6
ID : 7
Format : AC-3
Format/Info : Audio Coding 3
Format settings, Endianness : Big
Codec ID : A_AC3
Duration : 2 h 10 min
Bit rate mode : Constant
Bit rate : 224 kb/s
Channel(s) : 2 channels
Channel positions : Front: L R
Sampling rate : 48.0 kHz
Frame rate : 31.250 FPS (1536 SPF)
Bit depth : 16 bits
Compression mode : Lossy
Stream size : 209 MiB (0%)
Title : Commentary
Language : English
Service kind : Complete Main
Default : No
Forced : No
Text #1
ID : 8
Format : PGS
Codec ID : S_HDMV/PGS
Codec ID/Info : Picture based subtitle format used on BDs/HD-DVDs
Duration : 2 h 9 min
Bit rate : 13.8 kb/s
Count of elements : 1756
Stream size : 12.7 MiB (0%)
Title : [SUP] Full-length
Language : Russian
Default : No
Forced : No
Text #2
ID : 9
Format : UTF-8
Codec ID : S_TEXT/UTF8
Codec ID/Info : UTF-8 Plain Text
Duration : 2 h 9 min
Bit rate : 35 b/s
Count of elements : 879
Stream size : 33.7 KiB (0%)
Title : [SRT] Full-length
Language : Russian
Default : No
Forced : No
Text #3
ID : 10
Format : PGS
Codec ID : S_HDMV/PGS
Codec ID/Info : Picture based subtitle format used on BDs/HD-DVDs
Duration : 1 h 57 min
Bit rate : 23.3 kb/s
Count of elements : 1754
Stream size : 19.6 MiB (0%)
Title : [SUP] Full-length
Language : Ukrainian
Default : No
Forced : No
Text #4
ID : 11
Format : UTF-8
Codec ID : S_TEXT/UTF8
Codec ID/Info : UTF-8 Plain Text
Duration : 1 h 57 min
Bit rate : 41 b/s
Count of elements : 877
Stream size : 35.4 KiB (0%)
Title : [SRT] Full-length
Language : Ukrainian
Default : No
Forced : No
Text #5
ID : 12
Format : PGS
Codec ID : S_HDMV/PGS
Codec ID/Info : Picture based subtitle format used on BDs/HD-DVDs
Duration : 1 h 58 min
Bit rate : 22.9 kb/s
Count of elements : 2562
Stream size : 19.5 MiB (0%)
Title : [SUP] Full-length
Language : English
Default : No
Forced : No
Text #6
ID : 13
Format : UTF-8
Codec ID : S_TEXT/UTF8
Codec ID/Info : UTF-8 Plain Text
Duration : 1 h 40 min
Bit rate : 3 b/s
Count of elements : 127
Stream size : 2.71 KiB (0%)
Title : [SRT] Full-length
Language : English
Default : No
Forced : No
Text #7
ID : 14
Format : PGS
Codec ID : S_HDMV/PGS
Codec ID/Info : Picture based subtitle format used on BDs/HD-DVDs
Duration : 2 h 7 min
Bit rate : 2 116 b/s
Count of elements : 266
Stream size : 1.93 MiB (0%)
Title : [SUP] Forced
Language : Russian
Default : Yes
Forced : Yes
Text #8
ID : 15
Format : UTF-8
Codec ID : S_TEXT/UTF8
Codec ID/Info : UTF-8 Plain Text
Duration : 2 h 7 min
Bit rate : 5 b/s
Count of elements : 133
Stream size : 5.01 KiB (0%)
Title : [SRT] Forced
Language : Russian
Default : No
Forced : No
Text #9
ID : 16
Format : PGS
Codec ID : S_HDMV/PGS
Codec ID/Info : Picture based subtitle format used on BDs/HD-DVDs
Duration : 1 h 40 min
Bit rate : 3 594 b/s
Count of elements : 242
Stream size : 2.57 MiB (0%)
Title : [SUP] Forced
Language : Ukrainian
Default : No
Forced : No
Text #10
ID : 17
Format : UTF-8
Codec ID : S_TEXT/UTF8
Codec ID/Info : UTF-8 Plain Text
Duration : 1 h 40 min
Bit rate : 6 b/s
Count of elements : 121
Stream size : 4.56 KiB (0%)
Title : [SRT] Forced
Language : Ukrainian
Default : No
Forced : No
Text #11
ID : 18
Format : PGS
Codec ID : S_HDMV/PGS
Codec ID/Info : Picture based subtitle format used on BDs/HD-DVDs
Duration : 1 h 40 min
Bit rate : 1 873 b/s
Count of elements : 252
Stream size : 1.34 MiB (0%)
Title : [SUP] Forced
Language : English
Default : No
Forced : No
Text #12
ID : 19
Format : PGS
Codec ID : S_HDMV/PGS
Codec ID/Info : Picture based subtitle format used on BDs/HD-DVDs
Duration : 2 h 9 min
Bit rate : 70.6 kb/s
Count of elements : 4058
Stream size : 65.6 MiB (0%)
Title : Commentary
Language : Russian
Default : No
Forced : No
Menu
00:00:00.000 : en:Chapter 1
00:03:21.159 : en:Chapter 2
00:07:34.912 : en:Chapter 3
00:12:36.547 : en:Chapter 4
00:16:23.565 : en:Chapter 5
00:18:47.042 : en:Chapter 6
00:21:52.477 : en:Chapter 7
00:25:26.691 : en:Chapter 8
00:29:45.867 : en:Chapter 9
00:31:50.617 : en:Chapter 10
00:36:43.743 : en:Chapter 11
00:39:07.553 : en:Chapter 12
00:40:57.163 : en:Chapter 13
00:44:12.232 : en:Chapter 14
00:48:11.138 : en:Chapter 15
00:50:31.528 : en:Chapter 16
00:53:48.016 : en:Chapter 17
00:57:25.316 : en:Chapter 18
01:01:18.466 : en:Chapter 19
01:02:35.376 : en:Chapter 20
01:04:24.068 : en:Chapter 21
01:06:21.727 : en:Chapter 22
01:09:31.333 : en:Chapter 23
01:13:56.974 : en:Chapter 24
01:17:17.924 : en:Chapter 25
01:20:53.390 : en:Chapter 26
01:23:28.753 : en:Chapter 27
01:26:08.997 : en:Chapter 28
01:28:19.252 : en:Chapter 29
01:33:24.390 : en:Chapter 30
01:35:53.122 : en:Chapter 31
01:38:38.621 : en:Chapter 32
01:40:42.536 : en:Chapter 33
01:44:07.532 : en:Chapter 34
01:46:05.317 : en:Chapter 35
01:47:54.468 : en:Chapter 36
01:52:13.768 : en:Chapter 37
01:56:27.480 : en:Chapter 38
02:00:31.015 : en:Chapter 39
02:01:35.037 : en:Chapter 40

Скриншоты:



   Похожие торренты   Торрент   Размер 
В этой теме нет новых непрочитанных сообщений. Планета обезьян: Революция 2D, 3D / Dawn of the Planet of the Apes 2D, 3D (2014) BDRemux 1080p от ExKinoRay | 3D-Video | D | Лицензия

94 | 34

39.07 ГБ

В этой теме нет новых непрочитанных сообщений. Планета обезьян: Революция / Dawn of the Planet of the Apes (2014) BDRemux 1080p | D

42 | 9

20.9 ГБ

В этой теме нет новых непрочитанных сообщений. Планета обезьян: Революция / Dawn of the Planet of the Apes (2014) BDRemux 1080p | D, A

250 | 60

23.5 ГБ

В этой теме нет новых непрочитанных сообщений. Планета обезьян: Революция / Dawn of the Planet of the Apes (2014) HDRip | Лицензия

2034 | 149

2.05 ГБ

В этой теме нет новых непрочитанных сообщений. Планета обезьян: Революция / Dawn of the Planet of the Apes (2014) HDRip | Лицензия

2069 | 132

1.46 ГБ

В этой теме нет новых непрочитанных сообщений. Планета обезьян: Революция / Dawn of the Planet of the Apes (2014) BDRip-AVC | Лицензия

390 | 68

4.4 ГБ

В этой теме нет новых непрочитанных сообщений. Планета обезьян: Революция / Dawn of the Planet of the Apes (2014) BDRip от HQ-ViDEO | Лицензия

3875 | 331

2.18 ГБ




Вы не можете начинать темы
Вы не можете отвечать на сообщения
Вы не можете редактировать свои сообщения
Вы не можете удалять свои сообщения
Вы не можете добавлять вложения

Перейти:  
Для Мосгорсуда, Роскомнадзора и рекламодателей: mosgorsud-torrent[собачка]yandex.ru
 Вход
ppkBB3cker v.2 © 2008-2014 @ PPK
[ Time : 0.054s | 18 Queries | GZIP : Off ]

cron