img image001 image001 image001 image001 image001 image001 image001 image001 image001 image001 image001 image001 image001 image001 image001

Planets Sun Sun Sun
Статистика раздачи
Автор: Nickolas3434 | Размер: 13.84 ГБ | Добавлен: 12 янв 2018
Раздают: 20    Качают: 8
Скачать торрент
Скачать торрент
Описание торрента

СообщениеДобавлено: 12 янв 2018 

Название: Точка невозврата / Убийца
Оригинальное название: Point of No Return
Год выхода: 1993
Жанр: Боевик, триллер, криминал
Режиссер: Джон Бэдэм
В ролях: Бриджет Фонда, Гэбриэл Бирн, Дермот Малруни, Харви Кейтель, Мигель Феррер, Энн Бэнкрофт, Оливия д’Або, Ричард Романус, Лоррейн Туссен
О фильме:
Жестокая, напичканная наркотиками, она была обвинена в убийстве и приговорена к смерти. Но секретная государственная служба превратила эту женщину из обитательницы камеры смертников в убийцу-профессионала, живущего взаймы…

Страна: США
Студия: Warner Bros. Pictures
Продолжительность: 01:48:20
Перевод: Профессиональный (дублированный), авторский (одноголосый)
Субтитры: Russian, English, German, French, Italian, Spanish
Формат: MKV
Качество: BDRip 1080p
Видео: MPEG-4 AVC / 13370 kbps / 1920x792 / 23.976 fps
Звук:
Аудио 1: Russian: 48 kHz, Dolby Digital Audio, 5.1, 384 kbps - Дубляж
Аудио 2: Ukrainian: 48 kHz, DTS Audio, 5.1, 1536 kbps - Многоголосый (Новый Канал)
Аудио 3: Russian: 48 kHz, DTS Audio, 5.1, 1536 kbps - Авторский (Гаврилов)
Аудио 4: English: 48 kHz, DTS Audio, 5.1, 1536 kbps - Оригинал
Релиз от:
Format : Matroska
Format version : Version 2
File size : 13.8 GiB
Duration : 1 h 48 min
Overall bit rate : 18.3 Mb/s
Movie name : Point of No Return (1993) - Release for HDClub by HANSMER
Encoded date : UTC 2009-10-26 01:00:16
Writing application : mkvmerge v2.9.8 ('C'est le bon') built on Aug 13 2009 12:49:06
Writing library : libebml v0.7.7 + libmatroska v0.8.1
Video
ID : 1
Format : AVC
Format/Info : Advanced Video Codec
Format profile : [email protected]
Format settings, CABAC : Yes
Format settings, RefFrames : 5 frames
Codec ID : V_MPEG4/ISO/AVC
Duration : 1 h 48 min
Bit rate : 13.4 Mb/s
Width : 1 920 pixels
Height : 792 pixels
Display aspect ratio : 2.40:1
Frame rate mode : Constant
Frame rate : 23.976 (24000/1001) FPS
Color space : YUV
Chroma subsampling : 4:2:0
Bit depth : 8 bits
Scan type : Progressive
Bits/(Pixel*Frame) : 0.367
Stream size : 9.84 GiB (71%)
Title : Release for HDClub by HANSMER
Writing library : x264 core 67 r1162M f7bfcfa
Encoding settings : cabac=1 / ref=5 / deblock=1:-3:-4 / analyse=0x3:0x113 / me=tesa / subme=9 / psy_rd=1.3:0.0 / mixed_ref=1 / me_range=24 / chroma_me=1 / trellis=2 / 8x8dct=1 / cqm=0 / deadzone=21,11 / chroma_qp_offset=-2 / threads=12 / nr=0 / decimate=0 / mbaff=0 / bframes=6 / b_pyramid=1 / b_adapt=2 / b_bias=0 / direct=3 / wpredb=1 / keyint=250 / keyint_min=25 / scenecut=40 / rc=2pass / bitrate=13371 / ratetol=1.0 / qcomp=0.70 / qpmin=10 / qpmax=51 / qpstep=4 / cplxblur=20.0 / qblur=0.5 / vbv_maxrate=38000 / vbv_bufsize=38000 / ip_ratio=1.30 / pb_ratio=1.20 / aq=1:0.80
Language : English
Default : Yes
Forced : No
Audio #1
ID : 2
Format : AC-3
Format/Info : Audio Coding 3
Format settings, Endianness : Big
Codec ID : A_AC3
Duration : 1 h 48 min
Bit rate mode : Constant
Bit rate : 384 kb/s
Channel(s) : 6 channels
Channel positions : Front: L C R, Side: L R, LFE
Sampling rate : 48.0 kHz
Frame rate : 31.250 FPS (1536 SPF)
Bit depth : 16 bits
Compression mode : Lossy
Stream size : 298 MiB (2%)
Title : AC3 5.1 384 Kbps Дубляж
Language : Russian
Service kind : Complete Main
Default : Yes
Forced : No
Audio #2
ID : 3
Format : DTS
Format/Info : Digital Theater Systems
Mode : 16
Format settings, Endianness : Big
Codec ID : A_DTS
Duration : 1 h 48 min
Bit rate mode : Constant
Bit rate : 1 509 kb/s
Channel(s) : 6 channels
Channel positions : Front: L C R, Side: L R, LFE
Sampling rate : 48.0 kHz
Frame rate : 93.750 FPS (512 SPF)
Bit depth : 16 bits
Compression mode : Lossy
Stream size : 1.14 GiB (8%)
Title : DTS 5.1 1536 Kbps Многоголосый закадровый - Новый Канал
Language : Ukrainian
Default : No
Forced : No
Audio #3
ID : 4
Format : DTS
Format/Info : Digital Theater Systems
Mode : 16
Format settings, Endianness : Big
Codec ID : A_DTS
Duration : 1 h 48 min
Bit rate mode : Constant
Bit rate : 1 509 kb/s
Channel(s) : 6 channels
Channel positions : Front: L C R, Side: L R, LFE
Sampling rate : 48.0 kHz
Frame rate : 93.750 FPS (512 SPF)
Bit depth : 16 bits
Compression mode : Lossy
Stream size : 1.14 GiB (8%)
Title : DTS 5.1 1536 Kbps Одноголосый закадровый - А.Гаврилов
Language : Russian
Default : No
Forced : No
Audio #4
ID : 5
Format : DTS
Format/Info : Digital Theater Systems
Mode : 16
Format settings, Endianness : Big
Codec ID : A_DTS
Duration : 1 h 48 min
Bit rate mode : Constant
Bit rate : 1 510 kb/s
Channel(s) : 6 channels
Channel positions : Front: L C R, Side: L R, LFE
Sampling rate : 48.0 kHz
Frame rate : 93.750 FPS (512 SPF)
Bit depth : 24 bits
Compression mode : Lossy
Stream size : 1.14 GiB (8%)
Title : DTS 5.1 1536 Kbps
Language : English
Default : No
Forced : No
Text #1
ID : 6
Format : UTF-8
Codec ID : S_TEXT/UTF8
Codec ID/Info : UTF-8 Plain Text
Language : Russian
Default : No
Forced : No
Text #2
ID : 7
Format : UTF-8
Codec ID : S_TEXT/UTF8
Codec ID/Info : UTF-8 Plain Text
Language : English
Default : No
Forced : No
Text #3
ID : 8
Format : UTF-8
Codec ID : S_TEXT/UTF8
Codec ID/Info : UTF-8 Plain Text
Language : German
Default : No
Forced : No
Text #4
ID : 9
Format : UTF-8
Codec ID : S_TEXT/UTF8
Codec ID/Info : UTF-8 Plain Text
Language : French
Default : No
Forced : No
Text #5
ID : 10
Format : UTF-8
Codec ID : S_TEXT/UTF8
Codec ID/Info : UTF-8 Plain Text
Language : Italian
Default : No
Forced : No
Text #6
ID : 11
Format : UTF-8
Codec ID : S_TEXT/UTF8
Codec ID/Info : UTF-8 Plain Text
Language : Spanish
Default : No
Forced : No
Menu
00:00:00.000 : :00:00:00.000
00:05:29.204 : :00:05:29.204
00:08:33.847 : :00:08:33.847
00:12:25.078 : :00:12:25.078
00:16:06.924 : :00:16:06.924
00:17:54.657 : :00:17:54.657
00:21:55.689 : :00:21:55.689
00:26:57.950 : :00:26:57.950
00:29:32.270 : :00:29:32.270
00:32:17.853 : :00:32:17.853
00:39:53.266 : :00:39:53.266
00:42:29.881 : :00:42:29.881
00:47:20.004 : :00:47:20.004
00:50:42.790 : :00:50:42.790
00:53:55.357 : :00:53:55.357
00:55:33.330 : :00:55:33.330
00:59:54.174 : :00:59:54.174
01:01:48.371 : :01:01:48.371
01:05:42.897 : :01:05:42.897
01:09:17.779 : :01:09:17.779
01:16:18.908 : :01:16:18.908
01:19:22.049 : :01:19:22.049
01:21:55.869 : :01:21:55.869
01:24:41.076 : :01:24:41.076
01:27:47.304 : :01:27:47.304
01:30:10.196 : :01:30:10.196
01:35:18.588 : :01:35:18.588
01:39:25.376 : :01:39:25.376
01:42:53.876 : :01:42:53.876
01:44:51.368 : :01:44:51.368




   Похожие торренты   Торрент   Размер 
В этой теме нет новых непрочитанных сообщений. Точка невозврата / Убийца / Point of No Return (1993) BDRemux 1080p | D, A

10 | 11

17.98 ГБ

В этой теме нет новых непрочитанных сообщений. Убийца / Точка невозврата / Point of No Return / The Assassin (1993) BDRemux 1080p

1 | 6

22.21 ГБ

В этой теме нет новых непрочитанных сообщений. Убийца / Точка невозврата / Point of No Return (1993) BDRip-AVC | D, A

28 | 10

3.57 ГБ

В этой теме нет новых непрочитанных сообщений. Убийца / Точка невозврата / Point of No Return (1993) BDRip-AVC | D

8 | 0

2.18 ГБ

В этой теме нет новых непрочитанных сообщений. Убийца / Точка невозврата / Point of No Return (1993) BDRip | P

17 | 2

1.46 ГБ

В этой теме нет новых непрочитанных сообщений. Убийца / Точка невозврата / Point of No Return (1993) BDRip 720p

2 | 3

3.4 ГБ

В этой теме нет новых непрочитанных сообщений. Точка невозврата [Убийца] / Point of No Return (1993) BDRip от HQ-VIDEO

4 | 7

2.18 ГБ




Вы не можете начинать темы
Вы не можете отвечать на сообщения
Вы не можете редактировать свои сообщения
Вы не можете удалять свои сообщения
Вы не можете добавлять вложения

Перейти:  
Для Мосгорсуда, Роскомнадзора и рекламодателей: mosgorsud-torrent[собачка]yandex.ru
 Вход
ppkBB3cker v.2 © 2008-2014 @ PPK
[ Time : 0.072s | 19 Queries | GZIP : Off ]

cron