img image001 image001 image001 image001 image001 image001 image001 image001 image001 image001 image001 image001 image001 image001 image001

Planets Sun Sun Sun
Статистика раздачи
Автор: Nickolas3434 | Размер: 2.97 ГБ | Добавлен: 12 янв 2018
Раздают: 3    Качают: 0
Скачать торрент
Скачать торрент
Описание торрента

СообщениеДобавлено: 12 янв 2018 

Мечтатель / Dreamer: Inspired by a True Story
Страна: США
Производство: DreamWorks SKG, Hyde Park Entertainment, S.K.G. Productions LLC, Tollin/Robbins Productions, Brass Hat Films
Год выпуска: 2005
Жанр: драма, семейный, спорт
Продолжительность: 01:45:09
Режиссер: Джон Гэйтинс
Автор сценария: Джон Гэйтинс
В ролях: Курт Рассел, Дакота Фаннинг, Крис Кристофферсон, Элизабет Шу, Дэвид Морс, Фредди Родригес, Луис Гусман, Одед Фер, Кен Ховард
Описание: Фильм основан на реальных событиях. Отец и дочь — две одинокие души, живущие под одной крышей. Несмотря на глубокую привязанность, на самом деле они очень далеки от взаимопонимания. Но всё меняется, когда маленькая Кейл просит отца вылечить любимую лошадь. Это становится точкой отсчёта в новой истории любви и привязанности, новой жизни новой семьи и настоящей дружбы...

Перевод: Профессиональный (многоголосый, закадровый) | Paradise Digital
Субтитры: русские, английские

Качество: BDRip-AVC | исходник Dreamer.Inspired.by.a.True.Story.2005.1080p.Bluray.ITA.AVC.Remux
Формат: МКV
Видео кодек: AVC
Аудио кодек: АС3
Видео: 1152x480 (2.40:1), 24.000 fps, MPEG-4 AVC ~3 064 kbps avg
Аудио №1: 48.0 kHz, AC3 Dolby Digital, 3/2 (L,C,R,l,r) + LFE ch, ~448 kbps | RUS
Аудио №2: 48.0 kHz, AC3 Dolby Digital, 3/2 (L,C,R,l,r) + LFE ch, ~448 kbps | ENG
Формат субтитров: UTF-8 Plain Text
Бюджет: $32 000 000
Дата премьеры (мир): 10 сентября 2005
General
Unique ID : 207610327048884353336410187517116498848 (0x9C304B6876D691DB9B29D2FA82E743A0)
Complete name : D:ФильмыРипыDreamer Inspired by a True Story.2005.BDRip-AVC.eFK.mkv
Format : Matroska
Format version : Version 4 / Version 2
File size : 2.97 GiB
Duration : 1h 45mn
Overall bit rate : 4 041 Kbps
Encoded date : UTC 2014-06-06 23:57:39
Writing application : mkvmerge v6.1.0 ('Old Devil') built on Mar 4 2013 09:10:42
Writing library : libebml v1.3.0 + libmatroska v1.4.0
Attachment : Yes
Video
ID : 1
Format : AVC
Format/Info : Advanced Video Codec
Format profile : [email protected]
Format settings, CABAC : Yes
Format settings, ReFrames : 15 frames
Codec ID : V_MPEG4/ISO/AVC
Duration : 1h 45mn
Bit rate : 3 064 Kbps
Width : 1 152 pixels
Height : 480 pixels
Display aspect ratio : 2.40:1
Frame rate mode : Constant
Frame rate : 24.000 fps
Color space : YUV
Chroma subsampling : 4:2:0
Bit depth : 8 bits
Scan type : Progressive
Bits/(Pixel*Frame) : 0.231
Stream size : 2.25 GiB (76%)
Writing library : x264 core 142 r2431kMod ac76440
Encoding settings : cabac=1 / ref=15 / deblock=1:-3:-3 / analyse=0x3:0x133 / me=umh / subme=11 / psy=1 / fade_compensate=0.00 / psy_rd=1.00:0.00 / mixed_ref=1 / me_range=48 / chroma_me=1 / trellis=2 / 8x8dct=1 / cqm=0 / deadzone=21,11 / fast_pskip=1 / chroma_qp_offset=-2 / threads=8 / lookahead_threads=2 / sliced_threads=0 / nr=0 / decimate=1 / interlaced=0 / bluray_compat=0 / constrained_intra=0 / fgo=0 / bframes=16 / b_pyramid=2 / b_adapt=2 / b_bias=0 / direct=3 / weightb=1 / open_gop=0 / weightp=2 / keyint=250 / keyint_min=23 / scenecut=40 / intra_refresh=0 / rc_lookahead=60 / rc=crf / mbtree=0 / crf=17.7000 / qcomp=0.65 / qpmin=0 / qpmax=69 / qpstep=4 / vbv_maxrate=50000 / vbv_bufsize=62500 / crf_max=0.0 / nal_hrd=none / filler=0 / ip_ratio=1.40 / pb_ratio=1.30 / aq=3:0.75 / zones=144830,151416,q=30
Default : Yes
Forced : No
Audio #1
ID : 2
Format : AC-3
Format/Info : Audio Coding 3
Mode extension : CM (complete main)
Format settings, Endianness : Big
Codec ID : A_AC3
Duration : 1h 45mn
Bit rate mode : Constant
Bit rate : 448 Kbps
Channel count : 6 channels
Channel positions : Front: L C R, Side: L R, LFE
Sampling rate : 48.0 KHz
Bit depth : 16 bits
Compression mode : Lossy
Stream size : 337 MiB (11%)
Title : MVO (Paradise Digital)
Language : Russian
Default : Yes
Forced : No
Audio #2
ID : 3
Format : AC-3
Format/Info : Audio Coding 3
Mode extension : CM (complete main)
Format settings, Endianness : Big
Codec ID : A_AC3
Duration : 1h 45mn
Bit rate mode : Constant
Bit rate : 448 Kbps
Channel count : 6 channels
Channel positions : Front: L C R, Side: L R, LFE
Sampling rate : 48.0 KHz
Bit depth : 16 bits
Compression mode : Lossy
Stream size : 337 MiB (11%)
Language : English
Default : No
Forced : No
Text #1
ID : 4
Format : UTF-8
Codec ID : S_TEXT/UTF8
Codec ID/Info : UTF-8 Plain Text
Title : full
Language : Russian
Default : No
Forced : No
Text #2
ID : 5
Format : UTF-8
Codec ID : S_TEXT/UTF8
Codec ID/Info : UTF-8 Plain Text
Title : full
Language : English
Default : No
Forced : No
Menu
00:00:00.000 : en:00:00:00.000
00:08:05.375 : en:00:08:05.375
00:13:37.083 : en:00:13:37.083
00:26:24.167 : en:00:26:24.167
00:33:10.708 : en:00:33:10.708
00:42:39.042 : en:00:42:39.042
00:45:30.792 : en:00:45:30.792
00:49:57.625 : en:00:49:57.625
00:55:50.667 : en:00:55:50.667
01:02:27.958 : en:01:02:27.958
01:08:28.250 : en:01:08:28.250
01:14:39.333 : en:01:14:39.333
01:23:15.625 : en:01:23:15.625
01:31:05.958 : en:01:31:05.958
01:33:39.708 : en:01:33:39.708
01:38:49.208 : en:01:38:49.208



   Похожие торренты   Торрент   Размер 
В этой теме нет новых непрочитанных сообщений. Мечтатель / Dreamer: Inspired by a True Story (2005) BDRip 720p | Р

26 | 6

6.79 ГБ

В этой теме нет новых непрочитанных сообщений. Мечтатель / Dreamer: Inspired by a True Story (2005) BDRip от HELLYWOOD

2 | 47

2.18 ГБ

В этой теме нет новых непрочитанных сообщений. Мечтатель / Dreamer: Inspired by a True Story (2005) BDRip от HQCLUB

223 | 5

2.18 ГБ

В этой теме нет новых непрочитанных сообщений. Мечтатель / Dreamer: Inspired by a True Story (2005) BDRip 720p от Element team

4 | 4

2.19 ГБ

В этой теме нет новых непрочитанных сообщений. Мечтатель / Dreamer: Inspired by a True Story (2005) HDTVRip

6 | 1

747.19 МБ

В этой теме нет новых непрочитанных сообщений. Мечтатель / Dreamer: Inspired by a True Story (2005) HDTVRip

В этой теме нет новых непрочитанных сообщений. Мечтатель / Dreamer: Inspired by a True Story (2005) DVDRip от KinoZalSat

3 | 2

1.5 ГБ




Вы не можете начинать темы
Вы не можете отвечать на сообщения
Вы не можете редактировать свои сообщения
Вы не можете удалять свои сообщения
Вы не можете добавлять вложения

Перейти:  
Для Мосгорсуда, Роскомнадзора и рекламодателей: mosgorsud-torrent[собачка]yandex.ru
 Вход
ppkBB3cker v.2 © 2008-2014 @ PPK
[ Time : 0.101s | 18 Queries | GZIP : Off ]

cron