img image001 image001 image001 image001 image001 image001 image001 image001 image001 image001 image001 image001 image001 image001 image001

Planets Sun Sun Sun
Статистика раздачи
Автор: Nickolas3434 | Размер: 11.24 ГБ | Добавлен: 12 янв 2018
Раздают: 10    Качают: 5
Скачать торрент
Скачать торрент
Описание торрента

СообщениеДобавлено: 12 янв 2018 

Информация о фильме
Название: Рокко и его братья
Оригинальное название: Rocco e i suoi fratelli
Год выхода: 1960
Жанр: драма, криминал
Страна: Франция, Италия
Студия: Les Films Marceau, Titanus
Продолжительность: 02:59:06
Перевод: Профессиональный многоголосый
Режиссёр: Лукино Висконти / Luchino Visconti
В ролях: Ален Делон, Ренато Сальватори, Анни Жирардо, Катина Паксину, Спирос Фокас, Макс Картье, Коррадо Пани, Рокко Видолацци, Алессандра Панаро, Клаудия Мори, Адриана Асти, Энцо Фьермонте, Нино Кастельнуово, Розарио Борелли, Ренато Терра, Паоло Стоппа, Клаудия Кардинале, Сюзи Делер
О фильме
Одна из лучших картин Лукино Висконти, открывшая для кино Алена Делона и Анни Жирардо. Семейство Паронди (мать и пятеро сыновей) в поисках счастливой доли переезжает из полунищей Сицилии в промышленный Милан. Старший, Симоне, человек жестокий и агрессивный, делает карьеру на ринге. Ангельски красивый, тонкий и ранимый Рокко поначалу идет работать на фабрику, а затем тоже подается в боксеры. Материальное положение семьи нормализуется, но обычные человеческие пороки – вожделение и жадность, эгоизм и ревность – не дают обрести счастье. На беду для всех, и Симоне, и Рокко влюбляются в одну женщину.

Файл
Качество: BDRip 720p
Видео: MPEG-4 AVC, 1280x690 (1.85:1), 24.000 fps, 8164 Kbps, 0.385 bpp
Аудио 1: Russian: 48 kHz, AC3 Dolby Digital, 2/0 (L,R) ch, ~192 Kbps - MVO, Film Prestige
Аудио 2: Russian: 48 kHz, AC3 Dolby Digital, 2/0 (L,R) ch, ~256 Kbps - MVO, 1 канал
Аудио 3: Italian: 48 kHz, AC3 Dolby Digital, 2/0 (L,R) ch, ~192 Kbps - Оригинал
Субтитры: Русские (на непереведённые фрагменты 1 канала и Film Prestige), Русские (полные), Английские
Навигация по главам: Есть
Релиз от:

Общее
Уникальный идентификатор : 222331474624947236448776409691026647082 (0xA7437C054EE1C8B2A6401A56D750682A)
Полное имя : Рокко и его братья.1960.BDRip.720p.KORSAR.mkv
Формат : Matroska
Версия формата : Version 2
Размер файла : 11,2 Гбайт
Продолжительность : 2 ч. 59 м.
Общий поток : 8983 Кбит/сек
Название фильма : Рокко и его братья.1960.BDRip.720p
Дата кодирования : UTC 2017-10-29 14:10:33
Программа кодирования : mkvmerge v5.8.0 ('No Sleep / Pillow') built on Sep 2 2012 15:37:04
Библиотека кодирования : libebml v1.2.3 + libmatroska v1.3.0
Видео
Идентификатор : 1
Формат : AVC
Формат/Информация : Advanced Video Codec
Профиль формата : [email protected]
Параметр CABAC формата : Да
Параметр RefFrames формата : 9 кадров
Идентификатор кодека : V_MPEG4/ISO/AVC
Продолжительность : 2 ч. 59 м.
Битрейт : 8164 Кбит/сек
Ширина : 1280 пикселей
Высота : 690 пикселей
Соотношение сторон : 1,85:1
Режим частоты кадров : Постоянный
Частота кадров : 24,000 кадра/сек
Цветовое пространство : YUV
Субдискретизация насыщенности : 4:2:0
Битовая глубина : 8 бит
Тип развёртки : Прогрессивная
Бит/(Пиксели*Кадры) : 0.385
Размер потока : 10,2 Гбайт (91%)
Библиотека кодирования : x264 core 148 r2744kMod b97ae06
Настройки программы : cabac=1 / ref=9 / deblock=1:-3:-2 / analyse=0x3:0x113 / me=umh / subme=11 / psy=1 / fade_compensate=0.00 / psy_rd=1.02:0.10 / mixed_ref=1 / me_range=40 / chroma_me=1 / trellis=2 / 8x8dct=1 / cqm=0 / deadzone=21,11 / fast_pskip=1 / chroma_qp_offset=-3 / threads=12 / lookahead_threads=3 / sliced_threads=0 / nr=0 / decimate=1 / interlaced=0 / bluray_compat=0 / constrained_intra=0 / bframes=11 / b_pyramid=2 / b_adapt=2 / b_bias=0 / direct=1 / weightb=1 / open_gop=0 / weightp=2 / keyint=240 / keyint_min=24 / scenecut=40 / intra_refresh=0 / rc=crf / mbtree=0 / crf=17.9000 / qcomp=0.63 / qpmin=0 / qpmax=39 / qpstep=4 / ip_ratio=1.40 / pb_ratio=1.30 / aq=2:1.00
Язык : English
Default : Да
Forced : Нет
Цветовой диапазон : Limited
Основные цвета : BT.709
Характеристики трансфера : BT.709
Коэффициенты матрицы : BT.709
Аудио #1
Идентификатор : 2
Формат : AC-3
Формат/Информация : Audio Coding 3
Параметр Endianness формата : Big
Идентификатор кодека : A_AC3
Продолжительность : 2 ч. 59 м.
Вид битрейта : Постоянный
Битрейт : 192 Кбит/сек
Каналы : 2 канала
Расположение каналов : Front: L R
Частота : 48,0 КГц
Частота кадров : 31,250 кадров/сек (1536 SPF)
Битовая глубина : 16 бит
Метод сжатия : С потерями
Размер потока : 246 Мбайт (2%)
Заголовок : MVO, Film Prestige
Язык : Russian
Default : Да
Forced : Нет
Аудио #2
Идентификатор : 3
Формат : AC-3
Формат/Информация : Audio Coding 3
Параметр Endianness формата : Big
Идентификатор кодека : A_AC3
Продолжительность : 2 ч. 59 м.
Вид битрейта : Постоянный
Битрейт : 256 Кбит/сек
Каналы : 2 канала
Расположение каналов : Front: L R
Частота : 48,0 КГц
Частота кадров : 31,250 кадров/сек (1536 SPF)
Битовая глубина : 16 бит
Метод сжатия : С потерями
Размер потока : 328 Мбайт (3%)
Заголовок : MVO, Первый канал
Язык : Russian
Default : Нет
Forced : Нет
Аудио #3
Идентификатор : 4
Формат : AC-3
Формат/Информация : Audio Coding 3
Параметр Endianness формата : Big
Идентификатор кодека : A_AC3
Продолжительность : 2 ч. 59 м.
Вид битрейта : Постоянный
Битрейт : 192 Кбит/сек
Каналы : 2 канала
Расположение каналов : Front: L R
Частота : 48,0 КГц
Частота кадров : 31,250 кадров/сек (1536 SPF)
Битовая глубина : 16 бит
Метод сжатия : С потерями
Размер потока : 246 Мбайт (2%)
Заголовок : Оригинал
Язык : Italian
Default : Нет
Forced : Нет
Текст #1
Идентификатор : 5
Формат : UTF-8
Идентификатор кодека : S_TEXT/UTF8
Идентификатор кодека/Информация : UTF-8 Plain Text
Заголовок : На непереведённые фрагменты для Film Prestige
Язык : Russian
Default : Да
Forced : Нет
Текст #2
Идентификатор : 6
Формат : UTF-8
Идентификатор кодека : S_TEXT/UTF8
Идентификатор кодека/Информация : UTF-8 Plain Text
Заголовок : На непереведённые фрагменты для Первого канала
Язык : Russian
Default : Нет
Forced : Нет
Текст #3
Идентификатор : 7
Формат : UTF-8
Идентификатор кодека : S_TEXT/UTF8
Идентификатор кодека/Информация : UTF-8 Plain Text
Заголовок : Полные
Язык : Russian
Default : Нет
Forced : Нет
Текст #4
Идентификатор : 8
Формат : UTF-8
Идентификатор кодека : S_TEXT/UTF8
Идентификатор кодека/Информация : UTF-8 Plain Text
Язык : English
Default : Нет
Forced : Нет
Меню
00:00:00.000 : en:1
00:13:52.000 : en:2
00:23:08.000 : en:3
00:33:48.125 : en:4
00:43:22.250 : en:5
00:57:08.500 : en:6
01:06:24.000 : en:7
01:15:34.000 : en:8
01:27:30.000 : en:9
01:38:19.500 : en:10
01:50:33.500 : en:11
01:59:39.000 : en:12
02:13:58.000 : en:13
02:28:43.500 : en:14
02:40:07.500 : en:15
02:52:54.000 : en:16
02:58:55.000 : en:17
x264 [info]: frame I:1362 Avg QP:17.17 size: 148111
x264 [info]: frame P:50935 Avg QP:18.89 size: 79612
[*]x264 [info]: frame B:205612 Avg QP:21.27 size: 33784



   Похожие торренты   Торрент   Размер 
В этой теме нет новых непрочитанных сообщений. Рокко и его братья / Rocco e i suoi fratelli (1960) DVD9

5 | 3

7.43 ГБ

В этой теме нет новых непрочитанных сообщений. Рокко и его братья / Rocco e i suoi fratelli (1960) DVDRip от MediaClub | КПК

20 | 5

762.91 МБ

В этой теме нет новых непрочитанных сообщений. Рокко и его братья / Rocco e i suoi fratelli (1960) HDRip-AVC от Kaztorrents | P

25 | 2

2.16 ГБ

В этой теме нет новых непрочитанных сообщений. Рокко и его братья / Rocco e i suoi fratelli (1960) DVDRip от Generalfilm

14 | 3

2.17 ГБ

В этой теме нет новых непрочитанных сообщений. Рокко / Rocco (2016) BDRip 1080p | P2

50 | 4

14.09 ГБ

В этой теме нет новых непрочитанных сообщений. Рокко / Rocco (2016) HDRip | P2

106 | 14

1.46 ГБ

В этой теме нет новых непрочитанных сообщений. Рокко: Легенда крупным планом / Rocco (2016) WEBDLRip - AVC | P

40 | 0

1.39 ГБ




Вы не можете начинать темы
Вы не можете отвечать на сообщения
Вы не можете редактировать свои сообщения
Вы не можете удалять свои сообщения
Вы не можете добавлять вложения

Перейти:  
Для Мосгорсуда, Роскомнадзора и рекламодателей: mosgorsud-torrent[собачка]yandex.ru
 Вход
ppkBB3cker v.2 © 2008-2014 @ PPK
[ Time : 0.046s | 19 Queries | GZIP : Off ]

cron