img image001 image001 image001 image001 image001 image001 image001 image001 image001 image001 image001 image001 image001 image001 image001

Planets Sun Sun Sun
Статистика раздачи
Автор: Nickolas3434 | Размер: 61.26 ГБ | Добавлен: 12 янв 2018
Раздают: 4    Качают: 13
Скачать торрент
Скачать торрент
Описание торрента

СообщениеДобавлено: 12 янв 2018 

Производство: США, Великобритания / GK Films, Huahua Film & Media Culture, Paramount Pictures
Жанр: боевик, триллер, драма, мелодрама, военный
Режиссер: Роберт Земекис
Продюсер: Грэм Кинг, Стивен Найт, Жаклин Ливайн
Актеры: Брэд Питт, Марион Котийяр, Лиззи Каплан, Аугуст Диль, Шарлотта Хоуп, Рэффи Кэссиди, Мэттью Гуд, Дэниэл Беттс, Саймон МакБерни, Джаред Харрис
Описание:
1942 год. Во время опасной миссии в Северной Африке разведчик Макс встречает участницу сопротивления Марианну. Их чувствам суждено подвергнуться тысяче испытаний, главным из которых станет испытание правдой…

Релиз от: FraMeSToR, arxivariys
Продолжительность: 02:04:35
Качество: UHD BDRemux (HDR)
Перевод: Дублированный (Лицензия BD CEE), Авторский (одноголосый, закадровый) (В. Дохалов, А. Дасевич, В. Котов)
Субтитры: Русские (forced, full), украинские (forced, full), английские (forced, full, SDH)
Видео: HEVC/H.265, 3840x2160p, (16:9), 55,7 Мбит/сек, 23.976 fps
Аудио 1: AC3, 6 ch, 640 kbps - Русский, Дубляж
Аудио 2: DTS-HD MA, 6 ch, 3356 kbps - Русский, В. Дохалов
Аудио 3: DTS-HD MA, 6 ch, 3357 kbps - Русский, А. Дасевич
Аудио 4: DTS-HD MA, 6 ch, 3372 kbps - Русский, В. Котов
Аудио 5: AC3, 6 ch, 640 kbps - Украинский
Аудио 6: DTS-HD MA, 6 ch, 3333 kbps - Английский
General
Unique ID : 246145140080245712007881714492012146008 (0xB92DD4604FB073A08C80807E076EAD58)
Complete name : Союзники.2016.UHD.BluRay.Remux.2160p.mkv
Format : Matroska
Format version : Version 4 / Version 2
File size : 61.3 GiB
Duration : 2 h 4 min
Overall bit rate : 70.4 Mb/s
Encoded date : UTC 2017-11-26 14:33:07
Writing application : mkvmerge v18.0.0 ('Apricity') 64-bit
Writing library : libebml v1.3.5 + libmatroska v1.4.8
Attachments : poster.jpg
Video
ID : 1
Format : HEVC
Format/Info : High Efficiency Video Coding
Format profile : Main [email protected]@High
Codec ID : V_MPEGH/ISO/HEVC
Duration : 2 h 4 min
Bit rate : 55.7 Mb/s
Width : 3 840 pixels
Height : 2 160 pixels
Display aspect ratio : 16:9
Frame rate mode : Constant
Frame rate : 23.976 (24000/1001) FPS
Color space : YUV
Chroma subsampling : 4:2:0 (Type 2)
Bit depth : 10 bits
Bits/(Pixel*Frame) : 0.280
Stream size : 48.5 GiB (79%)
Writing library : ATEME Titan File 3.7.8 (4.7.8.0)
Default : Yes
Forced : No
Color range : Limited
Color primaries : BT.2020
Transfer characteristics : SMPTE ST 2084
Matrix coefficients : BT.2020 non-constant
Mastering display color primaries : R: x=0.680000 y=0.320000, G: x=0.265000 y=0.690000, B: x=0.150000 y=0.060000, White point: x=0.312700 y=0.329000
Mastering display luminance : min: 0.0050 cd/m2, max: 1000.0000 cd/m2
Audio #1
ID : 2
Format : AC-3
Format/Info : Audio Coding 3
Format settings, Endianness : Big
Codec ID : A_AC3
Duration : 2 h 4 min
Bit rate mode : Constant
Bit rate : 640 kb/s
Channel(s) : 6 channels
Channel positions : Front: L C R, Side: L R, LFE
Sampling rate : 48.0 kHz
Frame rate : 31.250 FPS (1536 SPF)
Bit depth : 16 bits
Compression mode : Lossy
Stream size : 570 MiB (1%)
Title : Dub, Blu-Ray
Language : Russian
Service kind : Complete Main
Default : Yes
Forced : No
Audio #2
ID : 3
Format : DTS
Format/Info : Digital Theater Systems
Format profile : MA / Core
Mode : 16
Format settings, Endianness : Big
Codec ID : A_DTS
Duration : 2 h 4 min
Bit rate mode : Variable / Constant
Bit rate : 3 356 kb/s / 1 509 kb/s
Channel(s) : 6 channels
Channel positions : Front: L C R, Side: L R, LFE
Sampling rate : 48.0 kHz
Frame rate : 93.750 FPS (512 SPF)
Bit depth : 24 bits
Compression mode : Lossless / Lossy
Stream size : 2.92 GiB (5%)
Title : В. Дохалов
Language : Russian
Default : No
Forced : No
Audio #3
ID : 4
Format : DTS
Format/Info : Digital Theater Systems
Format profile : MA / Core
Mode : 16
Format settings, Endianness : Big
Codec ID : A_DTS
Duration : 2 h 4 min
Bit rate mode : Variable / Constant
Bit rate : 3 357 kb/s / 1 509 kb/s
Channel(s) : 6 channels
Channel positions : Front: L C R, Side: L R, LFE
Sampling rate : 48.0 kHz
Frame rate : 93.750 FPS (512 SPF)
Bit depth : 24 bits
Compression mode : Lossless / Lossy
Stream size : 2.92 GiB (5%)
Title : А. Дасевич
Language : Russian
Default : No
Forced : No
Audio #4
ID : 5
Format : DTS
Format/Info : Digital Theater Systems
Format profile : MA / Core
Mode : 16
Format settings, Endianness : Big
Codec ID : A_DTS
Duration : 2 h 4 min
Bit rate mode : Variable / Constant
Bit rate : 3 372 kb/s / 1 509 kb/s
Channel(s) : 6 channels
Channel positions : Front: L C R, Side: L R, LFE
Sampling rate : 48.0 kHz
Frame rate : 93.750 FPS (512 SPF)
Bit depth : 24 bits
Compression mode : Lossless / Lossy
Stream size : 2.93 GiB (5%)
Title : В. Котов
Language : Russian
Default : No
Forced : No
Audio #5
ID : 6
Format : AC-3
Format/Info : Audio Coding 3
Format settings, Endianness : Big
Codec ID : A_AC3
Duration : 2 h 4 min
Bit rate mode : Constant
Bit rate : 640 kb/s
Channel(s) : 6 channels
Channel positions : Front: L C R, Side: L R, LFE
Sampling rate : 48.0 kHz
Frame rate : 31.250 FPS (1536 SPF)
Bit depth : 16 bits
Compression mode : Lossy
Stream size : 570 MiB (1%)
Title : Dub, Blu-Ray
Language : Ukrainian
Service kind : Complete Main
Default : No
Forced : No
Audio #6
ID : 7
Format : DTS
Format/Info : Digital Theater Systems
Format profile : MA / Core
Mode : 16
Format settings, Endianness : Big
Codec ID : A_DTS
Duration : 2 h 4 min
Bit rate mode : Variable / Constant
Bit rate : 3 333 kb/s / 1 509 kb/s
Channel(s) : 6 channels
Channel positions : Front: L C R, Side: L R, LFE
Sampling rate : 48.0 kHz
Frame rate : 93.750 FPS (512 SPF)
Bit depth : 24 bits
Compression mode : Lossless / Lossy
Stream size : 2.90 GiB (5%)
Language : English
Default : No
Forced : No
Text #1
ID : 8
Format : UTF-8
Codec ID : S_TEXT/UTF8
Codec ID/Info : UTF-8 Plain Text
Duration : 1 h 38 min
Bit rate : 9 b/s
Count of elements : 141
Stream size : 6.46 KiB (0%)
Title : forced
Language : Russian
Default : Yes
Forced : No
Text #2
ID : 9
Format : UTF-8
Codec ID : S_TEXT/UTF8
Codec ID/Info : UTF-8 Plain Text
Duration : 1 h 55 min
Bit rate : 57 b/s
Count of elements : 970
Stream size : 48.1 KiB (0%)
Title : full
Language : Russian
Default : No
Forced : No
Text #3
ID : 10
Format : UTF-8
Codec ID : S_TEXT/UTF8
Codec ID/Info : UTF-8 Plain Text
Duration : 1 h 38 min
Bit rate : 8 b/s
Count of elements : 149
Stream size : 6.44 KiB (0%)
Title : forced
Language : Ukrainian
Default : No
Forced : No
Text #4
ID : 11
Format : UTF-8
Codec ID : S_TEXT/UTF8
Codec ID/Info : UTF-8 Plain Text
Duration : 2 h 3 min
Bit rate : 51 b/s
Count of elements : 1054
Stream size : 46.1 KiB (0%)
Title : full
Language : Ukrainian
Default : No
Forced : No
Text #5
ID : 12
Format : UTF-8
Codec ID : S_TEXT/UTF8
Codec ID/Info : UTF-8 Plain Text
Duration : 1 h 33 min
Bit rate : 5 b/s
Count of elements : 131
Stream size : 3.69 KiB (0%)
Title : forced
Language : English
Default : No
Forced : No
Text #6
ID : 13
Format : UTF-8
Codec ID : S_TEXT/UTF8
Codec ID/Info : UTF-8 Plain Text
Duration : 1 h 51 min
Bit rate : 36 b/s
Count of elements : 1091
Stream size : 29.9 KiB (0%)
Title : full
Language : English
Default : No
Forced : No
Text #7
ID : 14
Format : UTF-8
Codec ID : S_TEXT/UTF8
Codec ID/Info : UTF-8 Plain Text
Duration : 1 h 55 min
Bit rate : 40 b/s
Count of elements : 1294
Stream size : 34.3 KiB (0%)
Title : SDH
Language : English
Default : No
Forced : No
Menu
00:00:00.000 : en:Chapter 01
00:05:38.088 : en:Chapter 02
00:16:39.749 : en:Chapter 03
00:24:31.428 : en:Chapter 04
00:33:52.280 : en:Chapter 05
00:43:07.543 : en:Chapter 06
00:49:14.118 : en:Chapter 07
01:01:39.321 : en:Chapter 08
01:09:36.339 : en:Chapter 09
01:16:44.016 : en:Chapter 10
01:26:14.961 : en:Chapter 11
01:31:53.466 : en:Chapter 12
01:40:12.173 : en:Chapter 13
01:47:25.105 : en:Chapter 14
01:56:35.614 : en:Chapter 15

Скриншоты:



   Похожие торренты   Торрент   Размер 
В этой теме нет новых непрочитанных сообщений. Союзники / Allied (2016) BDRemux 1080p от ExKinoRay | L

0 | 3

28.5 ГБ

В этой теме нет новых непрочитанных сообщений. Союзники / Allied (2016) BDRip-AVC | Лицензия

92 | 12

743.93 МБ

В этой теме нет новых непрочитанных сообщений. Союзники / Allied (2016) BDRip от HQCLUB | D | Лицензия

31 | 3

2.18 ГБ

В этой теме нет новых непрочитанных сообщений. Союзники / Allied (2016) BDRip от HQ-ViDEO | Лицензия

410 | 3

2.18 ГБ

В этой теме нет новых непрочитанных сообщений. Союзники / Allied (2016) BDRip 1080p от ExKinoRay | Лицензия

113 | 7

11.01 ГБ

В этой теме нет новых непрочитанных сообщений. Союзники / Allied (2016) BDRip 720p от ExKinoRay | Лицензия

35 | 9

9.13 ГБ

В этой теме нет новых непрочитанных сообщений. Союзники / Allied (2016) BDRip-HEVC 720p от HEVC CLUB | Лицензия

236 | 13

2 ГБ




Вы не можете начинать темы
Вы не можете отвечать на сообщения
Вы не можете редактировать свои сообщения
Вы не можете удалять свои сообщения
Вы не можете добавлять вложения

Перейти:  
Для Мосгорсуда, Роскомнадзора и рекламодателей: mosgorsud-torrent[собачка]yandex.ru
 Вход
ppkBB3cker v.2 © 2008-2014 @ PPK
[ Time : 0.046s | 20 Queries | GZIP : Off ]

cron