img image001 image001 image001 image001 image001 image001 image001 image001 image001 image001 image001 image001 image001 image001 image001

Planets Sun Sun Sun
Статистика раздачи
Автор: Nickolas3434 | Размер: 6.04 ГБ | Добавлен: 12 янв 2018
Раздают: 26    Качают: 2
Скачать торрент
Скачать торрент
Описание торрента

СообщениеДобавлено: 12 янв 2018 




Информация о фильме
Название: Восходящее солнце
Оригинальное название: Rising Sun
Год выхода: 1993
Жанр: Триллер, драма, криминал, детектив, экранизация
Режиссер: Филип Кауфман
В ролях: Шон Коннери, Уэсли Снайпс, Харви Кейтель, Кэри-Хироюки Тагава, Кевин Андерсон, Мако, Рэй Уайз, Стэн Эги, Стэн Шоу, Тиа Каррере, Стив Бушеми, Татьяна Патиц, Питер Кромби, Сэм Ллойд, Александра Пауэрс, Дэниэл фон Барген, Лоурен Робинсон, Эми Хилл, Том Дальгрен, Клайд Кусацу, Майкл Чэпмен, Джои Миясима, Тамара Тюни, Тони Гэниос, Джеймс Оливер Баллок, Майкл Кинсли, Элинор Клифт, Кларенс Пейдж, Пэт Чоут, Стивен С. Клемонс, Дэн Батлер, Тоширо Обата, Тайлин Джон, Шелли Мишель, Мишель Руис, Патриция Аямэ Томсон
О фильме:
Экранизация одноименного романа Майкла Крайтона. Лос-Анджелес. В небоскребе японской корпорации "Накамото", имеющей широкие деловые контакты с американской электронной компанией "Микрокон", идет деловой прием. В это время в главном конференц-зале обнаружен труп молодой женщины. Лейтенант полиции Том Грэм, приехавший на место преступления, не жалует японцев, отсюда и сложности в общении. К расследованию подключаются полицейский Веб Смит и Джо Коннер, специалист по японской культуре. Проверив систему безопасности, они обнаруживают: кассета, на которой мог быть виден убийца, подменена.

Страна: США
Студия: 20th Century Fox Film Corporation, Walrus & Associates
Продолжительность: 02:09:25
Перевод: Профессиональный многоголосый закадровый (ОРТ & R5) + Оригинал
Файл
Кодек: MPEG-4 AVC
Качество: BDRip 720p [BDRemux 1080p HDclub]
Видео: 1280x692, ~5338 Кбит/с, 23.976 кадр/с
Аудио 1: Русский: (AC3 48000Hz 6ch 448 kbps) - MVO (ОРТ)
Аудио 2: Русский: (AC3 48000Hz 6ch 448 kbps) - MVO (R5)
Аудио 3: Английский: (AC3 48000Hz 6ch 448 kbps) - ENG
Субтитры: Русские, украинские, английские


General
Unique ID : 233901641821247966974954875698853788456 (0xAFF7D14E658AC4E088912277200D3B28)
Complete name : F:FILMSВосходящее солнце.(1993).BLU-RAY_720p_2xRUS,ENG_[-=DoMiNo=-].mkv
Format : Matroska
Format version : Version 4 / Version 2
File size : 6.04 GiB
Duration : 2 h 9 min
Overall bit rate : 6 685 kb/s
Movie name : Восходящее солнце
Deion : Экранизация одноименного романа Майкла Крайтона. Лос-Анджелес. В небоскребе японской корпорации "Накамото", имеющей широкие деловые контакты с американской электронной компанией "Микрокон", идет деловой прием. В это время в главном конференц-зале обнаружен труп молодой женщины. Лейтенант полиции Том Грэм, приехавший на место преступления, не жалует японцев, отсюда и сложности в общении. К расследованию подключаются полицейский Веб Смит и Джо Коннер, специалист по японской культуре. Проверив систему безопасности, они обнаруживают: кассета, на которой мог быть виден убийца, подменена.
Encoded date : UTC 2018-01-08 04:28:00
Writing application : mkvmerge v18.0.0 ('Apricity') 64-bit
Writing library : libebml v1.3.5 + libmatroska v1.4.8 / Lavf57.71.100
Attachments : poster.jpg
ACTORS : Шон Коннери, Уэсли Снайпс, Харви Кейтель, Кэри-Хироюки Тагава, Кевин Андерсон, Мако, Рэй Уайз, Стэн Эги, Стэн Шоу, Тиа Каррере, Стив Бушеми, Татьяна Патиц, Питер Кромби, Сэм Ллойд, Александра Пауэрс, Дэниэл фон Барген, Лорен Робинсон, Эми Хилл, Том Дальгрен, Клайд Кусацу, Майкл Чэпмен, Джои Миясима, Нельсон Масита, Тамара Тюни, Тони Гэниос, Джеймс Оливер Баллок, Майкл Кинсли, Элинор Клифт, Кларенс Пейдж, Пэт Чоут, Стивен С. Клемонс, Дэн Батлер, Тоширо Обата, Тайлин Джон, Шелли Мишель, Мишель Руис, Патриция Аямэ Томсон, Джефф Имада, Дж. Макс Киришма, Ларри О. Уильямс мл., Скот Энтони Робинсон, Кит Леон Уильямс, Карл А. МакГи, Куинси Адамс мл., Сесил Браун, Меган Фэй, Макс Гроденчик, Гуннар Петерсон, Джессика Так, Маса Ватанабэ, Минни Саммерс Линдси, Пол Фудзимото, Кэндзи, Майкл Лэпард, Так Кубота, Фумио Демура, Тадаси Ямасита, Дэннис Ота, Рэймонд Китамура, Rita Weibel, Сьюзэн Айда, Сеичи Танака, Джон Кояма, Лео Ли, Дэкин Мэтьюз
COMPOSER : Тору Такэмицу
COUNTRY : США
DATE : 1993
DIRECTOR : Филип Кауфман
ENCODING_INFO : BluRay > MKV 720p / H264 > X264 CRF 18.5 Пользовательский
GENRE : боевик, триллер, драма, криминал, детектив
HD_VIDEO : 1
IMDB_RATING : 6.20
ITUNEXTC : mpaa|R|400|
Language : und
MEDIA_TYPE : 9
ORIGINAL_ACTORS : Sean Connery, Wesley Snipes, Harvey Keitel, Cary-Hiroyuki Tagawa, Kevin Anderson, Mako, Ray Wise, Stan Egi, Stan Shaw, Tia Carrere, Steve Buscemi, Tatjana Patitz, Peter Crombie, Sam Lloyd, Alexandra Powers, Daniel von Bargen, Lauren Robinson, Amy Hill, Tom Dahlgren, Clyde Kusatsu, Michael Chapman, Joey Miyashima, Nelson Mashita, Tamara Tunie, Tony Ganios, James Oliver Bullock, Michael Kinsley, Eleanor Clift, Clarence Page, Pat Choate, Steve Clemons (в титрах: Steven C. Clemons), Dan Butler, Toshirô Obata, Tylyn John, Shelley Michelle, Michele Ruiz, Patricia Ayame Thomson, Jeff Imada, J. Max Kirishima (в титрах: Max Kirishima), Larry O. Williams Jr., Scot Anthony Robinson, Keith Leon Williams (в титрах: Keith Leon Hickles), Carl A. McGee, Quincy Adams Jr., Cecil Brown, Meagen Fay, Max Grodénchik, Gunnar Peterson, Jessica Tuck, Masa Watanabe, Minnie Summers Lindsey, Paul Fujimoto, Kenji, Michael Leopard, Tak Kubota, Fumio Demura, Tadashi Yamashita, Dennis Ota, Raymond Kitamura, Susan Iida, Seiichi Tanaka, John Koyama, Leo Lee, Dakin Matthews
ORIGINAL_TITLE : Rising Sun
PRODUCER : Питер Кауфман, Йен Брайс, Шон Коннери
RATING : 6.724
WRITER : Майкл Крайтон, Филип Кауфман, Майкл Бэкес
Video
ID : 1
Format : AVC
Format/Info : Advanced Video Codec
Format profile : [email protected]
Format settings : CABAC / 8 Ref Frames
Format settings, CABAC : Yes
Format settings, ReFrames : 8 frames
Codec ID : V_MPEG4/ISO/AVC
Duration : 2 h 9 min
Bit rate : 5 338 kb/s
Width : 1 280 pixels
Height : 692 pixels
Display aspect ratio : 1.85:1
Frame rate mode : Constant
Frame rate : 23.976 (24000/1001) FPS
Color space : YUV
Chroma subsampling : 4:2:0
Bit depth : 8 bits
Scan type : Progressive
Bits/(Pixel*Frame) : 0.251
Stream size : 4.83 GiB (80%)
Title : BLU-RAY_720p_RIP_BY_-=DoMiNo=-
Writing library : x264 core 155 r2893M b00bcaf
Encoding settings : cabac=1 / ref=8 / deblock=1:-3:-3 / analyse=0x3:0x133 / me=umh / subme=10 / psy=1 / psy_rd=1.00:0.10 / mixed_ref=1 / me_range=32 / chroma_me=1 / trellis=2 / 8x8dct=1 / cqm=0 / deadzone=21,11 / fast_pskip=1 / chroma_qp_offset=-3 / threads=6 / lookahead_threads=1 / sliced_threads=0 / nr=0 / decimate=1 / interlaced=0 / bluray_compat=0 / constrained_intra=0 / bframes=9 / b_pyramid=2 / b_adapt=2 / b_bias=0 / direct=3 / weightb=1 / open_gop=0 / weightp=2 / keyint=240 / keyint_min=24 / scenecut=40 / intra_refresh=0 / rc_lookahead=60 / rc=crf / mbtree=1 / crf=18.5 / qcomp=0.60 / qpmin=0 / qpmax=69 / qpstep=4 / ip_ratio=1.40 / aq=1:1.00
Language : English
Default : Yes
Forced : No
Audio #1
ID : 2
Format : AC-3
Format/Info : Audio Coding 3
Codec ID : A_AC3
Duration : 2 h 9 min
Bit rate mode : Constant
Bit rate : 448 kb/s
Channel(s) : 6 channels
Channel positions : Front: L C R, Side: L R, LFE
Sampling rate : 48.0 kHz
Frame rate : 31.250 FPS (1536 SPF)
Bit depth : 16 bits
Compression mode : Lossy
Stream size : 415 MiB (7%)
Title : MVO_ORT
Language : Russian
Service kind : Complete Main
Default : Yes
Forced : No
Audio #2
ID : 3
Format : AC-3
Format/Info : Audio Coding 3
Codec ID : A_AC3
Duration : 2 h 9 min
Bit rate mode : Constant
Bit rate : 448 kb/s
Channel(s) : 6 channels
Channel positions : Front: L C R, Side: L R, LFE
Sampling rate : 48.0 kHz
Frame rate : 31.250 FPS (1536 SPF)
Bit depth : 16 bits
Compression mode : Lossy
Stream size : 415 MiB (7%)
Title : MVO_R5
Language : Russian
Service kind : Complete Main
Default : No
Forced : No
Audio #3
ID : 4
Format : AC-3
Format/Info : Audio Coding 3
Codec ID : A_AC3
Duration : 2 h 9 min
Bit rate mode : Constant
Bit rate : 448 kb/s
Channel(s) : 6 channels
Channel positions : Front: L C R, Side: L R, LFE
Sampling rate : 48.0 kHz
Frame rate : 31.250 FPS (1536 SPF)
Bit depth : 16 bits
Compression mode : Lossy
Stream size : 415 MiB (7%)
Title : ENG
Language : English
Service kind : Complete Main
Default : No
Forced : No
Text #1
ID : 5
Format : UTF-8
Codec ID : S_TEXT/UTF8
Codec ID/Info : UTF-8 Plain Text
Duration : 1 h 30 min
Bit rate : 0 b/s
Count of elements : 5
Stream size : 286 Bytes (0%)
Title : RUS_Forsed
Language : Russian
Default : No
Forced : No
Text #2
ID : 6
Format : UTF-8
Codec ID : S_TEXT/UTF8
Codec ID/Info : UTF-8 Plain Text
Duration : 2 h 5 min
Bit rate : 92 b/s
Count of elements : 1626
Stream size : 85.3 KiB (0%)
Title : RUS
Language : Russian
Default : No
Forced : No
Text #3
ID : 7
Format : UTF-8
Codec ID : S_TEXT/UTF8
Codec ID/Info : UTF-8 Plain Text
Duration : 2 h 5 min
Bit rate : 91 b/s
Count of elements : 1626
Stream size : 83.8 KiB (0%)
Title : UKR
Language : Ukrainian
Default : No
Forced : No
Text #4
ID : 8
Format : UTF-8
Codec ID : S_TEXT/UTF8
Codec ID/Info : UTF-8 Plain Text
Duration : 2 h 4 min
Bit rate : 64 b/s
Count of elements : 1725
Stream size : 58.9 KiB (0%)
Title : ENG
Language : English
Default : No
Forced : No
Menu
00:00:00.000 : :Глава 1
00:03:38.551 : :Глава 2
00:07:35.454 : :Глава 3
00:11:46.539 : :Глава 4
00:14:37.459 : :Глава 5
00:20:42.657 : :Глава 6
00:28:36.923 : :Глава 7
00:35:45.810 : :Глава 8
00:44:24.661 : :Глава 9
00:49:17.329 : :Глава 10
00:55:10.807 : :Глава 11
01:00:53.357 : :Глава 12
01:06:52.550 : :Глава 13
01:12:10.325 : :Глава 14
01:15:29.733 : :Глава 15
01:19:04.656 : :Глава 16
01:22:35.533 : :Глава 17
01:25:43.388 : :Глава 18
01:31:25.688 : :Глава 19
01:35:29.055 : :Глава 20
01:40:07.793 : :Глава 21
01:46:27.297 : :Глава 22
01:50:27.954 : :Глава 23
01:52:14.352 : :Глава 24
02:00:03.821 : :Глава 25
02:05:44.078 : :Глава 26
02:09:24.756 : :Глава 27





   Похожие торренты   Торрент   Размер 
В этой теме нет новых непрочитанных сообщений. Восходящее солнце / Rising Sun (1993) BDRip 720p

1 | 2

11.33 ГБ

В этой теме нет новых непрочитанных сообщений. Восходящее солнце / Rising Sun (1993) BDRip-AVC | P

36 | 3

1.45 ГБ

В этой теме нет новых непрочитанных сообщений. Восходящее солнце / Rising Sun (1993) BDRip-AVC | P

23 | 1

744.51 МБ

В этой теме нет новых непрочитанных сообщений. Восходящее солнце / Rising Sun (1993) BDRip-AVC от 0ptimus

7 | 30

3.93 ГБ

В этой теме нет новых непрочитанных сообщений. Восходящее солнце / Rising Sun (1993) BDRip 1080p | P, A

7 | 3

9.32 ГБ

В этой теме нет новых непрочитанных сообщений. Восходящее солнце / Rising Sun (1993) BDRip от HQCLUB

2 | 3

2.18 ГБ

В этой теме нет новых непрочитанных сообщений. Восходящее солнце / Rising Sun (1993) BDRip от HQ-ViDEO

4 | 3

2.18 ГБ




Вы не можете начинать темы
Вы не можете отвечать на сообщения
Вы не можете редактировать свои сообщения
Вы не можете удалять свои сообщения
Вы не можете добавлять вложения

Перейти:  
Для Мосгорсуда, Роскомнадзора и рекламодателей: mosgorsud-torrent[собачка]yandex.ru
 Вход
ppkBB3cker v.2 © 2008-2014 @ PPK
[ Time : 0.700s | 19 Queries | GZIP : Off ]

cron