img image001 image001 image001 image001 image001 image001 image001 image001 image001 image001 image001 image001 image001 image001 image001

Planets Sun Sun Sun
Статистика раздачи
Автор: Nickolas3434 | Размер: 746.04 МБ | Добавлен: 12 янв 2018
Раздают: 197    Качают: 13
Скачать торрент
Скачать торрент
Описание торрента

СообщениеДобавлено: 12 янв 2018 

Информация о фильме
Название: Коматозники
Оригинальное название: Flatliners
Год выхода: 2017
Жанр: Ужасы, фантастика, триллер, драма
Режиссер: Нильс Арден Оплев
В ролях: Эллен Пейдж, Диего Луна, Нина Добрев, Джеймс Нортон, Кирси Клемонс, Кифер Сазерленд, Джейкоб Соли, Анна Арден Оплев, Мигель Энтони
О фильме :
Пятеро студентов-медиков, одержимых желанием узнать, что происходит с человеком после смерти, решаются на рискованный эксперимент: на время они останавливают друг другу сердце, чтобы погрузиться в состояние клинической смерти и на собственном опыте понять, что происходит с человеком по ту сторону. Но они забывают, что, переступив черту, нужно быть готовым к последствиям.

Страна: США
Студия: Cross Creek Pictures, Furthur Films, Laurence Mark Productions, Screen Gems
Продолжительность: 01:49:46
Перевод: Дублированный | iTunes
Файл
Формат: MKV
Качество: BDRip-AVC (BDRemux 1080p)
Видео: MPEG-4 AVC, 784x328, ~ 872 Кбит/с
Аудио: AAC-LC, 2 ch, ~ 76 Кбит/с
Субтитры: Русские (forced, full), английские
Общее
Уникальный идентификатор : 178405655851192123349841443924253516886 (0x8637ADF2BDB9BF1EA5C750C35DBEA456)
Полное имя : D:MOVIESFlatliners.2017.ExKinoRay.mkv
Формат : Matroska
Версия формата : Version 4 / Version 2
Размер файла : 746 Мбайт
Продолжительность : 1 ч. 49 м.
Общий поток : 950 Кбит/сек
Дата кодирования : UTC 2018-01-07 17:18:27
Программа кодирования : mkvmerge v15.0.0 ('Duel with the Devil') 64-bit
Библиотека кодирования : libebml v1.3.5 + libmatroska v1.4.5
Видео
Идентификатор : 1
Формат : AVC
Формат/Информация : Advanced Video Codec
Профиль формата : [email protected]
Параметр CABAC формата : Да
Параметр RefFrames формата : 10 кадров
Идентификатор кодека : V_MPEG4/ISO/AVC
Продолжительность : 1 ч. 49 м.
Битрейт : 872 Кбит/сек
Ширина : 784 пикселя
Высота : 328 пикселей
Соотношение сторон : 2,40:1
Режим частоты кадров : Постоянный
Частота кадров : 23,976 (24000/1001) кадра/сек
Цветовое пространство : YUV
Субдискретизация насыщенности : 4:2:0
Битовая глубина : 8 бит
Тип развёртки : Прогрессивная
Бит/(Пиксели*Кадры) : 0.141
Размер потока : 685 Мбайт (92%)
Библиотека кодирования : x264 core 152 r2851 ba24899
Настройки программы : cabac=1 / ref=10 / deblock=1:-3:-3 / analyse=0x3:0x133 / me=umh / subme=11 / psy=1 / psy_rd=1.00:0.05 / mixed_ref=1 / me_range=32 / chroma_me=1 / trellis=2 / 8x8dct=1 / cqm=0 / deadzone=21,11 / fast_pskip=0 / chroma_qp_offset=-3 / threads=6 / lookahead_threads=1 / sliced_threads=0 / nr=0 / decimate=0 / interlaced=0 / bluray_compat=0 / constrained_intra=0 / bframes=10 / b_pyramid=2 / b_adapt=2 / b_bias=0 / direct=3 / weightb=1 / open_gop=0 / weightp=2 / keyint=240 / keyint_min=23 / scenecut=40 / intra_refresh=0 / rc_lookahead=40 / rc=2pass / mbtree=0 / bitrate=872 / ratetol=1.0 / qcomp=0.60 / qpmin=0 / qpmax=69 / qpstep=4 / cplxblur=20.0 / qblur=0.5 / vbv_maxrate=50000 / vbv_bufsize=62500 / nal_hrd=none / filler=0 / ip_ratio=1.40 / pb_ratio=1.30 / aq=1:1.00
Default : Да
Forced : Нет
Аудио
Идентификатор : 2
Формат : AAC
Формат/Информация : Advanced Audio Codec
Профиль формата : LC
Идентификатор кодека : A_AAC
Продолжительность : 1 ч. 49 м.
Битрейт : 76,0 Кбит/сек
Каналы : 2 канала
Расположение каналов : Front: L R
Частота : 48,0 КГц
Частота кадров : 46,875 кадров/сек (1024 SPF)
Метод сжатия : С потерями
Задержка видео : 9 мс.
Размер потока : 59,7 Мбайт (8%)
Default : Да
Forced : Нет
Текст #1
Идентификатор : 3
Формат : UTF-8
Идентификатор кодека : S_TEXT/UTF8
Идентификатор кодека/Информация : UTF-8 Plain Text
Продолжительность : 1 ч. 47 м.
Битрейт : 0 бит/сек
ElementCount : 10
Размер потока : 473 байт (0%)
Заголовок : Forced
Язык : Russian
Default : Да
Forced : Да
Текст #2
Идентификатор : 4
Формат : UTF-8
Идентификатор кодека : S_TEXT/UTF8
Идентификатор кодека/Информация : UTF-8 Plain Text
Продолжительность : 1 ч. 47 м.
Битрейт : 75 бит/сек
ElementCount : 1244
Размер потока : 59,4 Кбайт (0%)
Заголовок : Full
Язык : Russian
Default : Нет
Forced : Нет
Текст #3
Идентификатор : 5
Формат : UTF-8
Идентификатор кодека : S_TEXT/UTF8
Идентификатор кодека/Информация : UTF-8 Plain Text
Продолжительность : 1 ч. 43 м.
Битрейт : 47 бит/сек
ElementCount : 1241
Размер потока : 36,1 Кбайт (0%)
Заголовок : Full
Язык : English
Default : Нет
Forced : Нет
Меню #1
00:00:00.000 : en:00:00:00.000
00:05:48.557 : en:00:05:48.557
00:11:21.097 : en:00:11:21.097
00:18:01.205 : en:00:18:01.205
00:26:41.600 : en:00:26:41.600
00:35:10.734 : en:00:35:10.734
00:42:31.382 : en:00:42:31.382
00:48:10.971 : en:00:48:10.971
00:55:32.621 : en:00:55:32.621
01:03:49.993 : en:01:03:49.993
01:09:43.262 : en:01:09:43.262
01:16:20.868 : en:01:16:20.868
01:24:18.011 : en:01:24:18.011
01:30:00.186 : en:01:30:00.186
01:36:06.094 : en:01:36:06.094
01:41:54.692 : en:01:41:54.692
Меню #2
00:00:00.000 : en:00:00:00.000
00:05:48.557 : en:00:05:48.557
00:11:21.097 : en:00:11:21.097
00:18:01.205 : en:00:18:01.205
00:26:41.600 : en:00:26:41.600
00:35:10.734 : en:00:35:10.734
00:42:31.382 : en:00:42:31.382
00:48:10.971 : en:00:48:10.971
00:55:32.621 : en:00:55:32.621
01:03:49.993 : en:01:03:49.993
01:09:43.262 : en:01:09:43.262
01:16:20.868 : en:01:16:20.868
01:24:18.011 : en:01:24:18.011
01:30:00.186 : en:01:30:00.186
01:36:06.094 : en:01:36:06.094
01:41:54.692 : en:01:41:54.692


Релиз от:



   Похожие торренты   Торрент   Размер 
В этой теме нет новых непрочитанных сообщений. Коматозники / Flatliners (2017) BDRip от ExKinoRay | iTunes

238 | 9

1.41 ГБ

В этой теме нет новых непрочитанных сообщений. Коматозники / Flatliners (2017) BDRip от ExKinoRay | iTunes

152 | 2

2.13 ГБ

В этой теме нет новых непрочитанных сообщений. Коматозники / Flatliners (2017) BDRip 720p от ExKinoRay | iTunes

1661 | 140

6.31 ГБ

В этой теме нет новых непрочитанных сообщений. Коматозники / Flatliners (2017) BDRip 1080p от ExKinoRay | iTunes

1661 | 172

11.84 ГБ

В этой теме нет новых непрочитанных сообщений. Коматозники / Flatliners (2017) BDRemux 1080p от ExKinoRay | iTunes

187 | 18

21.08 ГБ

В этой теме нет новых непрочитанных сообщений. Коматозники / Flatliners (2017) BDRip-AVC от k.e.n & MegaPeer | D | iTunes

574 | 62

2.13 ГБ

В этой теме нет новых непрочитанных сообщений. Коматозники / Flatliners (2017) BDRip-AVC от HELLYWOOD | iTunes

200 | 19

1.41 ГБ




Вы не можете начинать темы
Вы не можете отвечать на сообщения
Вы не можете редактировать свои сообщения
Вы не можете удалять свои сообщения
Вы не можете добавлять вложения

Перейти:  
Для Мосгорсуда, Роскомнадзора и рекламодателей: mosgorsud-torrent[собачка]yandex.ru
 Вход
ppkBB3cker v.2 © 2008-2014 @ PPK
[ Time : 0.060s | 18 Queries | GZIP : Off ]

cron