img image001 image001 image001 image001 image001 image001 image001 image001 image001 image001 image001 image001 image001 image001 image001

Planets Sun Sun Sun
Статистика раздачи
Автор: Nickolas3434 | Размер: 13.51 ГБ | Добавлен: 12 янв 2018
Раздают: 14    Качают: 1
Скачать торрент
Скачать торрент
Описание торрента

СообщениеДобавлено: 12 янв 2018 

Информация о фильме
Название: Зип и Зап на острове Капитана
Оригинальное название: Zipi y Zape y la Isla del Capitán
Год выхода: 2016
Жанр: Приключения
Режиссер: Оскар Сантос Гомес
В ролях: Елена Анайя, Каролина Лапауса, Эйдан Кук, Гойсальде Нуньес, Тео Планель, Хорхе Бош, Ферми Рейксач, Максимо Пастор, Том Уилтон, Тринидад Иглесиас, Хуан Антонио Кодина, Тони Гомес, Ириа Кастеллано, Ана Бланко
О фильме:
Проказники Зип и Зап оказываются наказанными в самый канун Рождества. Теперь вместо того, чтобы наслаждаться зимними каникулами, они должны сопровождать своих родителей в деловой поездке на отдаленный остров. Однако ужасный шторм нарушает все планы, и семья вынуждена искать временное прибежище в доме эксцентричной мисс Пам, где дети без семей наслаждаются райской жизнью без правил. В компании своих новых друзей братьям Зипу и Запу предстоит раскрыть множество секретов, а также узнать, что таинственное исчезновение их родителей посреди ночи имеет отношение к скелетам, которые хранят в своих шкафах странные обитатели этого острова.

Страна: Испания
Студия: Mod Producciones, Kowalski Films, Atresmedia Cine, Movistar+, Zeta Cinema
Продолжительность: 01:44:37
Перевод: Любительский (многоголосый, закадровый) [GreenРай Studio], украинский любительский (одноголосый, закадровый) [Герман Лукич студіо]
РЕЛИЗ БЕЗ РЕКЛАМЫ!
Файл
Кодек: x264
Качество: BDRip 1080p
Видео: MPEG-4 AVC, 16.3 Мбит/с, 1920x804, 24 кадр/с
Звук:
Аудио#1: Russian AC3, 48.0 khz, 2 ch, 192 kbps - MVO, [GreenРай Studio]
Аудио#2: Ukrainian AAC, 48.0 khz, 6 ch, 445 kbps - VO, [Герман Лукич студіо]
Аудио#3: Spanish DTS, 48.0 khz, 6 ch, 1509 kbps - Оригинал (испанский)
Субтитры: Русские (форсированные), украинские (форсированные, на текст песни); русские (jojag), испанские, английские х2, китайские (упрощенные), китайские (традиционные)
Сэмпл: скачать
General
Unique ID : 187775600212367670107741582624692267570 (0x8D4443DF6422B910BED32E8160EE6A32)
Complete name : I:Zip.&.Zap.and.the.Captain's.Island.2016.BDRip.1080p.x264.Rus.Ukr.Spa.mkv
Format : Matroska
Format version : Version 4 / Version 2
File size : 13.5 GiB
Duration : 1 h 44 min
Overall bit rate : 18.5 Mb/s
Encoded date : UTC 2018-01-07 13:25:34
Writing application : mkvmerge v8.3.0 ('Over the Horizon') 32bit
Writing library : libebml v1.3.1 + libmatroska v1.4.2
Attachments : poster.jpg
Video
ID : 1
Format : AVC
Format/Info : Advanced Video Codec
Format profile : [email protected]
Format settings, CABAC : Yes
Format settings, ReFrames : 5 frames
Codec ID : V_MPEG4/ISO/AVC
Duration : 1 h 44 min
Bit rate : 16.3 Mb/s
Width : 1 920 pixels
Height : 804 pixels
Display aspect ratio : 2.40:1
Frame rate mode : Constant
Frame rate : 24.000 FPS
Color space : YUV
Chroma subsampling : 4:2:0
Bit depth : 8 bits
Scan type : Progressive
Bits/(Pixel*Frame) : 0.440
Stream size : 11.9 GiB (88%)
Writing library : x264 core 148 r2705+45 bdacf7a 7mod [[email protected] X86_64]
Encoding settings : cabac=1 / ref=5 / deblock=1:-3:-3 / analyse=0x3:0x113 / me=umh / subme=11 / psy=1 / fade_compensate=0.00 / psy_rd=1.00:0.05 / mixed_ref=1 / me_range=32 / chroma_me=1 / trellis=2 / 8x8dct=1 / cqm=0 / deadzone=21,11 / fast_pskip=0 / chroma_qp_offset=-2 / threads=12 / lookahead_threads=2 / sliced_threads=0 / nr=0 / decimate=1 / interlaced=0 / bluray_compat=0 / constrained_intra=0 / fgo=0 / bframes=8 / b_pyramid=2 / b_adapt=2 / b_bias=0 / direct=3 / weightb=1 / open_gop=0 / weightp=2 / keyint=250 / keyint_min=24 / scenecut=40 / intra_refresh=0 / rc_lookahead=40 / rc=crf / mbtree=0 / crf=16.0000 / qcomp=0.60 / qpmin=0:0:0 / qpmax=69:69:69 / qpstep=4 / vbv_maxrate=50000 / vbv_bufsize=40000 / crf_max=0.0 / nal_hrd=none / filler=0 / ip_ratio=1.40 / pb_ratio=1.30 / aq=4:0.90 / aq-sensitivity=10.00 / aq-factor=1.00:1.00:1.00 / aq2=0 / aq3=0
Language : Spanish
Default : Yes
Forced : No
Audio #1
ID : 2
Format : AC-3
Format/Info : Audio Coding 3
Format settings, Endianness : Big
Codec ID : A_AC3
Duration : 1 h 44 min
Bit rate mode : Constant
Bit rate : 192 kb/s
Channel(s) : 2 channels
Channel positions : Front: L R
Sampling rate : 48.0 kHz
Frame rate : 31.250 FPS (1536 spf)
Bit depth : 16 bits
Compression mode : Lossy
Stream size : 144 MiB (1%)
Title : Любительский (многоголосый закадровый) [GreenРай Studio]
Language : Russian
Service kind : Complete Main
Default : Yes
Forced : No
Audio #2
ID : 3
Format : AAC
Format/Info : Advanced Audio Codec
Format profile : LC
Codec ID : A_AAC
Duration : 1 h 44 min
Bit rate : 445 kb/s
Channel(s) : 6 channels
Channel positions : Front: L C R, Side: L R, LFE
Sampling rate : 48.0 kHz
Frame rate : 46.875 FPS (1024 spf)
Compression mode : Lossy
Stream size : 333 MiB (2%)
Title : Любительский (одноголосый закадровый) [Герман Лукич студіо]
Language : Ukrainian
Default : No
Forced : No
Audio #3
ID : 4
Format : DTS
Format/Info : Digital Theater Systems
Mode : 16
Format settings, Endianness : Big
Codec ID : A_DTS
Duration : 1 h 44 min
Bit rate mode : Constant
Bit rate : 1 509 kb/s
Channel(s) : 6 channels
Channel positions : Front: L C R, Side: L R, LFE
Sampling rate : 48.0 kHz
Frame rate : 93.750 FPS (512 spf)
Bit depth : 24 bits
Compression mode : Lossy
Stream size : 1.10 GiB (8%)
Title : Original
Language : Spanish
Default : No
Forced : No
Text #1
ID : 5
Format : UTF-8
Codec ID : S_TEXT/UTF8
Codec ID/Info : UTF-8 Plain Text
Duration : 22 min 32 s
Bit rate : 18 b/s
Count of elements : 32
Stream size : 2.99 KiB (0%)
Title : Forced
Language : Russian
Default : Yes
Forced : No
Text #2
ID : 6
Format : UTF-8
Codec ID : S_TEXT/UTF8
Codec ID/Info : UTF-8 Plain Text
Duration : 2 min 3 s
Bit rate : 186 b/s
Count of elements : 36
Stream size : 2.80 KiB (0%)
Title : Forced
Language : Ukrainian
Default : No
Forced : No
Text #3
ID : 7
Format : UTF-8
Codec ID : S_TEXT/UTF8
Codec ID/Info : UTF-8 Plain Text
Duration : 1 h 44 min
Bit rate : 85 b/s
Count of elements : 1142
Stream size : 65.3 KiB (0%)
Title : Full (jojag)
Language : Russian
Default : No
Forced : No
Text #4
ID : 8
Format : UTF-8
Codec ID : S_TEXT/UTF8
Codec ID/Info : UTF-8 Plain Text
Duration : 1 h 38 min
Bit rate : 56 b/s
Count of elements : 1241
Stream size : 40.9 KiB (0%)
Title : SDH
Language : Spanish
Default : No
Forced : No
Text #5
ID : 9
Format : UTF-8
Codec ID : S_TEXT/UTF8
Codec ID/Info : UTF-8 Plain Text
Duration : 1 h 38 min
Bit rate : 48 b/s
Count of elements : 1146
Stream size : 35.0 KiB (0%)
Language : English
Default : No
Forced : No
Text #6
ID : 10
Format : PGS
Muxing mode : zlib
Codec ID : S_HDMV/PGS
Codec ID/Info : Picture based subtitle format used on BDs/HD-DVDs
Duration : 1 h 38 min
Bit rate : 9 904 b/s
Count of elements : 2292
Stream size : 6.97 MiB (0%)
Language : English
Default : No
Forced : No
Text #7
ID : 11
Format : PGS
Muxing mode : zlib
Codec ID : S_HDMV/PGS
Codec ID/Info : Picture based subtitle format used on BDs/HD-DVDs
Duration : 1 h 38 min
Bit rate : 15.2 kb/s
Count of elements : 2312
Stream size : 10.7 MiB (0%)
Title : CHS
Language : Chinese
Default : No
Forced : No
Text #8
ID : 12
Format : PGS
Muxing mode : zlib
Codec ID : S_HDMV/PGS
Codec ID/Info : Picture based subtitle format used on BDs/HD-DVDs
Duration : 1 h 38 min
Bit rate : 16.0 kb/s
Count of elements : 2312
Stream size : 11.3 MiB (0%)
Title : CHT
Language : Chinese
Default : No
Forced : No
Menu
00:00:00.000 : en:00:00:00.000
00:08:06.125 : en:00:08:06.125
00:16:50.000 : en:00:16:50.000
00:24:27.500 : en:00:24:27.500
00:35:29.250 : en:00:35:29.250
00:42:39.500 : en:00:42:39.500
00:51:53.000 : en:00:51:53.000
00:59:04.500 : en:00:59:04.500
01:06:30.000 : en:01:06:30.000
01:15:06.500 : en:01:15:06.500
01:21:32.750 : en:01:21:32.750
01:31:20.250 : en:01:31:20.250
01:38:36.000 : en:01:38:36.000



   Похожие торренты   Торрент   Размер 
В этой теме нет новых непрочитанных сообщений. Зип и Зап на острове Капитана / Zipi y Zape y la Isla del Capitán (2016) BDRip | L

14 | 0

2.06 ГБ

В этой теме нет новых непрочитанных сообщений. Зип и Зап на острове Капитана / Zipi y Zape y la Isla del Capitán (2016) BDRip 720p | Sub

21 | 3

4.17 ГБ

В этой теме нет новых непрочитанных сообщений. Зип и Зап на острове Капитана / Zipi y Zape y la Isla del Capitán (2016) HDRip от ImperiaFilm | L

37 | 8

747.01 МБ

В этой теме нет новых непрочитанных сообщений. Зип и Зап и остров капитана / Zipi y Zape y la Isla del Capitán (2016) BDRip 720p | L

34 | 6

3.13 ГБ

В этой теме нет новых непрочитанных сообщений. Зип и Зап и остров капитана / Zipi y Zape y la Isla del Capitán (2016) HDRip | L

82 | 3

1.37 ГБ

В этой теме нет новых непрочитанных сообщений. Зип и Зап. Клуб стеклянных шариков / Zipi y Zape y el club de la canica (2013) BDRip 720p | Чистый звук

350 | 41

4.56 ГБ

В этой теме нет новых непрочитанных сообщений. Зип и Зап. Клуб стеклянных шариков / Zipi y Zape y el club de la canica (2013) HDRip-AVC | Чистый звук

196 | 18

1.21 ГБ




Вы не можете начинать темы
Вы не можете отвечать на сообщения
Вы не можете редактировать свои сообщения
Вы не можете удалять свои сообщения
Вы не можете добавлять вложения

Перейти:  
Для Мосгорсуда, Роскомнадзора и рекламодателей: mosgorsud-torrent[собачка]yandex.ru
 Вход
ppkBB3cker v.2 © 2008-2014 @ PPK
[ Time : 0.040s | 18 Queries | GZIP : Off ]

cron