img image001 image001 image001 image001 image001 image001 image001 image001 image001 image001 image001 image001 image001 image001 image001

Planets Sun Sun Sun
Статистика раздачи
Автор: Nickolas3434 | Размер: 14.18 ГБ | Добавлен: 12 янв 2018
Раздают: 20    Качают: 6
Скачать торрент
Скачать торрент
Описание торрента

СообщениеДобавлено: 12 янв 2018 

Информация о фильме
Название: Летние любовники
Оригинальное название: Summer lovers
Год выхода: 1982
Жанр: мелодрама, комедия
Режиссер: Рэндал Клайзер
В ролях: Питер Галлахер, Дэрил Ханна, Валери Кеннессен, Барбара Раш, Кэрол Кук, Ханс ван Тонгерен, Лидия Ленеси, Владимирос Кириакидис, Карлос Родригез Рамос, Рика Диалина
О фильме:
Майкл и Кэти вместе с толпами других туристов приезжают на побережье Греции в летний отпуск. Майкл вскоре увлекается раскованной француженкой-археологом, а Кэти, узнав, что они стали любовниками, знакомится с этой француженкой и весьма близко с ней сходится. Все трое начинают жить одной дружной семьёй.

Выпущено: США
Студия: Filmways Pictures
Продолжительность: 01:38:53
Перевод:
1: Русский: Профессиональный (двухголосый закадровый)
1: Русский: одноголосый закадровый (авторский) Владимир Королёв
Качество: BDRip 1080p
Формат: MKV
Видео: MPEG-4 AVC, 17.3 Mбит/с, 1920x1040, 23.976 кадр/с
Аудио 1: русский, AC3, 192 kbps, 2 ch, 48 kHz [профессиональный двухголосый]
Аудио 2: русский, DTS, 1509 kbps, 2 ch, 48 kHz [авторский, Владимир Королёв]
Аудио 3: английский, DTS, 1509 kbps, 2 ch, 48 kHz [оригинал]
Субтитры: английские
Неименованные главы/чаптеры.


Общее
Уникальный идентификатор : 171563388131590420613306311842263824241 (0x8111E81AA0D9CD62BA7BCA5B3B957771)
Полное имя : D:VideoЛетние любовники.1982.BDRip.1080p by msltel.mkv
Формат : Matroska
Версия формата : Version 4 / Version 2
Размер файла : 14,2 Гбайт
Продолжительность : 1 ч. 38 м.
Общий поток : 20,5 Мбит/сек
Название фильма : Rip by msltel
Дата кодирования : UTC 2018-01-06 14:56:26
Программа кодирования : mkvmerge v8.2.0 ('World of Adventure') 64bit
Библиотека кодирования : libebml v1.3.1 + libmatroska v1.4.2
Видео
Идентификатор : 1
Формат : AVC
Формат/Информация : Advanced Video Codec
Профиль формата : [email protected]
Настройки формата : CABAC / 4 Ref Frames
Параметр CABAC формата : Да
Параметр RefFrames формата : 4 кадра
Идентификатор кодека : V_MPEG4/ISO/AVC
Продолжительность : 1 ч. 38 м.
Битрейт : 17,3 Мбит/сек
Ширина : 1920 пикселей
Высота : 1040 пикселей
Соотношение сторон : 1,85:1
Режим частоты кадров : Постоянный
Частота кадров : 23,976 (24000/1001) кадра/сек
Цветовое пространство : YUV
Субдискретизация насыщенности : 4:2:0
Битовая глубина : 8 бит
Тип развёртки : Прогрессивная
Бит/(Пиксели*Кадры) : 0.362
Размер потока : 12,0 Гбайт (84%)
Библиотека кодирования : x264 core 146 r2538 121396c
Настройки программы : cabac=1 / ref=4 / deblock=1:-3:-2 / analyse=0x3:0x113 / me=umh / subme=11 / psy=1 / psy_rd=1.00:0.15 / mixed_ref=1 / me_range=32 / chroma_me=1 / trellis=2 / 8x8dct=1 / cqm=0 / deadzone=21,11 / fast_pskip=0 / chroma_qp_offset=-3 / threads=6 / lookahead_threads=1 / sliced_threads=0 / nr=0 / decimate=1 / interlaced=0 / bluray_compat=0 / constrained_intra=0 / bframes=8 / b_pyramid=2 / b_adapt=2 / b_bias=0 / direct=1 / weightb=1 / open_gop=0 / weightp=2 / keyint=230 / keyint_min=23 / scenecut=40 / intra_refresh=0 / rc_lookahead=40 / rc=crf / mbtree=0 / crf=19.8 / qcomp=0.60 / qpmin=0 / qpmax=69 / qpstep=4 / vbv_maxrate=62500 / vbv_bufsize=78125 / crf_max=0.0 / nal_hrd=none / filler=0 / ip_ratio=1.40 / pb_ratio=1.30 / aq=1:1.00
Язык : English
Default : Да
Forced : Нет
Аудио #1
Идентификатор : 2
Формат : AC-3
Формат/Информация : Audio Coding 3
Идентификатор кодека : A_AC3
Продолжительность : 1 ч. 38 м.
Вид битрейта : Постоянный
Битрейт : 192 Кбит/сек
Каналы : 2 канала
Расположение каналов : Front: L R
Частота : 48,0 КГц
Частота кадров : 31,250 кадров/сек (1536 SPF)
Битовая глубина : 16 бит
Метод сжатия : С потерями
Размер потока : 136 Мбайт (1%)
Заголовок : DVO
Язык : Russian
ServiceKind/String : Complete Main
Default : Да
Forced : Нет
Аудио #2
Идентификатор : 3
Формат : DTS
Формат/Информация : Digital Theater Systems
Идентификатор кодека : A_DTS
Продолжительность : 1 ч. 38 м.
Вид битрейта : Постоянный
Битрейт : 1509 Кбит/сек
Каналы : 2 канала
Расположение каналов : Front: L R
Частота : 48,0 КГц
Частота кадров : 93,750 кадра/сек (512 SPF)
Битовая глубина : 24 бит
Метод сжатия : С потерями
Размер потока : 1,04 Гбайт (7%)
Заголовок : Владимир Королёв
Язык : Russian
Default : Нет
Forced : Нет
Аудио #3
Идентификатор : 4
Формат : DTS
Формат/Информация : Digital Theater Systems
Идентификатор кодека : A_DTS
Продолжительность : 1 ч. 38 м.
Вид битрейта : Постоянный
Битрейт : 1509 Кбит/сек
Каналы : 2 канала
Расположение каналов : Front: L R
Частота : 48,0 КГц
Частота кадров : 93,750 кадра/сек (512 SPF)
Битовая глубина : 24 бит
Метод сжатия : С потерями
Размер потока : 1,04 Гбайт (7%)
Заголовок : original
Язык : English
Default : Нет
Forced : Нет
Текст
Идентификатор : 5
Формат : UTF-8
Идентификатор кодека : S_TEXT/UTF8
Идентификатор кодека/Информация : UTF-8 Plain Text
Продолжительность : 1 ч. 38 м.
Битрейт : 53 бит/сек
ElementCount : 1586
Размер потока : 38,7 Кбайт (0%)
Заголовок : английские
Язык : English
Default : Нет
Forced : Нет
Меню
00:00:00.000 : :Chapter 01
00:05:52.726 : :Chapter 02
00:09:04.085 : :Chapter 03
00:11:59.634 : :Chapter 04
00:16:44.378 : :Chapter 05
00:19:29.459 : :Chapter 06
00:25:56.554 : :Chapter 07
00:29:06.661 : :Chapter 08
00:33:03.355 : :Chapter 09
00:38:15.126 : :Chapter 10
00:42:32.465 : :Chapter 11
00:44:41.552 : :Chapter 12
00:49:40.726 : :Chapter 13
00:54:29.641 : :Chapter 14
00:57:18.309 : :Chapter 15
01:04:30.115 : :Chapter 16
01:07:29.836 : :Chapter 17
01:11:10.140 : :Chapter 18
01:15:22.600 : :Chapter 19
01:21:15.119 : :Chapter 20
01:24:28.188 : :Chapter 21
01:29:00.752 : :Chapter 22
01:32:08.396 : :Chapter 23
01:36:46.801 : :Chapter 24
01:38:53.135 : :Chapter 25



Релиз от:



   Похожие торренты   Торрент   Размер 
В этой теме нет новых непрочитанных сообщений. Летние любовники / Summer Lovers (1982) BDRip-AVC от Koenig

125 | 25

2.74 ГБ

В этой теме нет новых непрочитанных сообщений. Летние любовники / Summer Lovers (1982) HDRip | P2

230 | 25

1.45 ГБ

В этой теме нет новых непрочитанных сообщений. Летние любовники / Summer lovers (1982) HDRip-AVC от ImperiaFilm | P2

17 | 0

741.89 МБ

В этой теме нет новых непрочитанных сообщений. Летние любовники / Лето втроем / Summer Lovers (1982) DVDRip

149 | 5

1.37 ГБ

В этой теме нет новых непрочитанных сообщений. Единственные выжившие любовники / Выживут только любовники / Only Lovers Left Alive (2013) WEB-DLRip | L1

492 | 66

1.56 ГБ

В этой теме нет новых непрочитанных сообщений. Любовники / Два любовника / Two Lovers (2008) BDRip от HQ-ViDEO | P2

655 | 21

1.45 ГБ

В этой теме нет новых непрочитанных сообщений. Любовники / Два любовника / Two Lovers (2008) BDRip от Rulya74

33 | 6

1.75 ГБ




Вы не можете начинать темы
Вы не можете отвечать на сообщения
Вы не можете редактировать свои сообщения
Вы не можете удалять свои сообщения
Вы не можете добавлять вложения

Перейти:  
Для Мосгорсуда, Роскомнадзора и рекламодателей: mosgorsud-torrent[собачка]yandex.ru
 Вход
ppkBB3cker v.2 © 2008-2014 @ PPK
[ Time : 0.042s | 19 Queries | GZIP : Off ]

cron