img image001 image001 image001 image001 image001 image001 image001 image001 image001 image001 image001 image001 image001 image001 image001

Planets Sun Sun Sun
Статистика раздачи
Автор: Nickolas3434 | Размер: 12.76 ГБ | Добавлен: 06 янв 2018
Раздают: 0    Качают: 0
Скачать торрент
Скачать торрент
Описание торрента

СообщениеДобавлено: 06 янв 2018 

Название: Бегущий по лезвию 2049
Оригинальное название: Blade Runner 2049
Год выхода: 2017
Жанр: фантастика, триллер, драма, детектив
Режиссер: Дени Вильнёв
В ролях: Райан Гослинг, Харрисон Форд, Ана де Армас, Сильвия Хукс, Робин Райт, Маккензи Дэвис, Карла Юри, Ленни Джеймс, Дэйв Батиста, Джаред Лето
О фильме:
В недалеком будущем мир населен людьми и репликантами, созданными выполнять самую тяжелую работу. Работа офицера полиции Кей — держать репликантов под контролем в условиях нарастающего напряжения. Пока он случайно не становится обладателем секретной информации, которая ставит под угрозу существование всего человечества. Желая найти ключ к разгадке, Кей решает разыскать Рика Декарда, бывшего офицера специального подразделения полиции Лос-Анджелеса, который бесследно исчез много лет назад.

Страна: США, Великобритания, Венгрия, Канада
Студия: Columbia Pictures
Продолжительность: 02:43:27
Перевод: профессиональный (дублированный)
Субтитры: русские (форсированные, полные), английские
Формат: MKV
Качество: BDRip 1080p
Видео: MPEG-4 AVC / 9.1 Mbps / 1920x1080 / 23.976 fps
Звук:
Russian: Dolby Digital Audio / 5.1 / 48 kHz / 640 kbps - Дубляж
English: DTS Audio / 5.1 / 48 kHz / 1509 kbps - Оригинал
Format : Matroska
Format version : Version 2
File size : 12.8 GiB
Duration : 2 h 43 min
Overall bit rate : 11.2 Mb/s
Movie name : Blade Runner 2049 (2017)
Encoded date : UTC 2018-01-04 09:58:35
Writing application : mkvmerge v4.9.1 ('Ich will') сборка от Jul 11 2011 23:53:15
Writing library : libebml v1.2.1 + libmatroska v1.1.1
Video
ID : 1
Format : AVC
Format/Info : Advanced Video Codec
Format profile : [email protected]
Format settings, CABAC : Yes
Format settings, RefFrames : 5 frames
Codec ID : V_MPEG4/ISO/AVC
Duration : 2 h 43 min
Bit rate : 9 024 kb/s
Width : 1 920 pixels
Height : 800 pixels
Display aspect ratio : 2.40:1
Frame rate mode : Constant
Frame rate : 23.976 FPS
Color space : YUV
Chroma subsampling : 4:2:0
Bit depth : 8 bits
Scan type : Progressive
Bits/(Pixel*Frame) : 0.245
Stream size : 10.1 GiB (79%)
Title : Бегущий по лезвию 2049
Writing library : x264 core 152 r2851 ba24899
Encoding settings : cabac=1 / ref=5 / deblock=1:0:0 / analyse=0x3:0x133 / me=umh / subme=7 / psy=1 / psy_rd=1.00:0.00 / mixed_ref=1 / me_range=16 / chroma_me=1 / trellis=1 / 8x8dct=1 / cqm=0 / deadzone=21,11 / fast_pskip=0 / chroma_qp_offset=-2 / threads=24 / lookahead_threads=4 / sliced_threads=0 / nr=0 / decimate=1 / interlaced=0 / bluray_compat=0 / constrained_intra=0 / bframes=3 / b_pyramid=2 / b_adapt=1 / b_bias=0 / direct=1 / weightb=1 / open_gop=0 / weightp=2 / keyint=250 / keyint_min=23 / scenecut=40 / intra_refresh=0 / rc_lookahead=40 / rc=2pass / mbtree=1 / bitrate=9024 / ratetol=1.0 / qcomp=0.60 / qpmin=0 / qpmax=69 / qpstep=4 / cplxblur=20.0 / qblur=0.5 / ip_ratio=1.40 / aq=1:1.00
Language : English
Default : Yes
Forced : No
Audio #1
ID : 2
Format : AC-3
Format/Info : Audio Coding 3
Format settings, Endianness : Big
Codec ID : A_AC3
Duration : 2 h 43 min
Bit rate mode : Constant
Bit rate : 640 kb/s
Channel(s) : 6 channels
Channel positions : Front: L C R, Side: L R, LFE
Sampling rate : 48.0 kHz
Frame rate : 31.250 FPS (1536 SPF)
Bit depth : 16 bits
Compression mode : Lossy
Stream size : 748 MiB (6%)
Title : Дубляж
Language : Russian
Service kind : Complete Main
Default : Yes
Forced : No
Audio #2
ID : 3
Format : DTS
Format/Info : Digital Theater Systems
Mode : 16
Format settings, Endianness : Big
Codec ID : A_DTS
Duration : 2 h 43 min
Bit rate mode : Constant
Bit rate : 1 509 kb/s
Channel(s) : 6 channels
Channel positions : Front: L C R, Side: L R, LFE
Sampling rate : 48.0 kHz
Frame rate : 93.750 FPS (512 SPF)
Bit depth : 24 bits
Compression mode : Lossy
Stream size : 1.72 GiB (14%)
Title : Оригинал
Language : English
Default : No
Forced : No
Text #1
ID : 4
Format : UTF-8
Codec ID : S_TEXT/UTF8
Codec ID/Info : UTF-8 Plain Text
Title : Форсированные
Language : Russian
Default : Yes
Forced : No
Text #2
ID : 5
Format : UTF-8
Codec ID : S_TEXT/UTF8
Codec ID/Info : UTF-8 Plain Text
Title : Полные
Language : Russian
Default : No
Forced : No
Text #3
ID : 6
Format : UTF-8
Codec ID : S_TEXT/UTF8
Codec ID/Info : UTF-8 Plain Text
Title : Полные
Language : English
Default : No
Forced : No
Menu
00:00:00.000 : en:00:00:00.000
00:12:36.172 : en:00:12:36.172
00:23:29.283 : en:00:23:29.283
00:37:00.885 : en:00:37:00.885
00:42:50.318 : en:00:42:50.318
00:49:24.503 : en:00:49:24.503
00:58:35.554 : en:00:58:35.554
01:04:10.680 : en:01:04:10.680
01:15:47.293 : en:01:15:47.293
01:25:12.482 : en:01:25:12.482
01:36:15.061 : en:01:36:15.061
01:50:55.107 : en:01:50:55.107
02:01:36.873 : en:02:01:36.873
02:08:40.379 : en:02:08:40.379
02:16:42.486 : en:02:16:42.486
02:27:46.733 : en:02:27:46.733




   Похожие торренты   Торрент   Размер 
В этой теме нет новых непрочитанных сообщений. Бегущий по лезвию 2049 / Blade Runner 2049 (2017) BDRip 1080p от HELLYWOOD | Лицензия

648 | 137

11.23 ГБ

В этой теме нет новых непрочитанных сообщений. Бегущий по лезвию 2049 / Blade Runner 2049 (2017) BDRip 1080p от ExKinoRay | Лицензия

783 | 54

15 ГБ

В этой теме нет новых непрочитанных сообщений. Бегущий по лезвию 2049 / Blade Runner 2049 (2017) BDRip 1080p от qqss44 & MegaPeer | Лицензия

3099 | 242

9.89 ГБ

В этой теме нет новых непрочитанных сообщений. Бегущий по лезвию 2049 / Blade Runner 2049 (2017) BDRip 1080p от Ash61 | 3D-Video | halfOU | Лицензия

351 | 31

10.82 ГБ

В этой теме нет новых непрочитанных сообщений. Бегущий по лезвию 2049 / Blade Runner 2049 (2017) BDRip 1080p от ExKinoRay | 3D-Video | HSBS | Лицензия

213 | 59

19.58 ГБ

В этой теме нет новых непрочитанных сообщений. Бегущий по лезвию 2049 / Blade Runner 2049 (2017) Blu-Ray EUR 1080p | Лицензия

70 | 29

40.71 ГБ

В этой теме нет новых непрочитанных сообщений. Бегущий по лезвию 2049 / Blade Runner 2049 (2017) BDRemux 1080p | US Transfer | D, A | Лицензия

0 | 0

32.79 ГБ




Вы не можете начинать темы
Вы не можете отвечать на сообщения
Вы не можете редактировать свои сообщения
Вы не можете удалять свои сообщения
Вы не можете добавлять вложения

Перейти:  
Для Мосгорсуда, Роскомнадзора и рекламодателей: mosgorsud-torrent[собачка]yandex.ru
 Вход
ppkBB3cker v.2 © 2008-2014 @ PPK
[ Time : 0.048s | 19 Queries | GZIP : Off ]

cron