img image001 image001 image001 image001 image001 image001 image001 image001 image001 image001 image001 image001 image001 image001 image001

Planets Sun Sun Sun
Статистика раздачи
Автор: Nickolas3434 | Размер: 23.72 ГБ | Добавлен: 23 ноя 2017
Раздают: 11    Качают: 4
Скачать торрент
Скачать торрент
Описание торрента

СообщениеДобавлено: 23 ноя 2017 

Информация о фильме
Название: Роковое искушение
Оригинальное название: The Beguiled
Год выхода: 2017
Жанр: Драма, военный
Режиссер: София Коппола
В ролях: Колин Фаррелл, Николь Кидман, Кирстен Данст, Элль Фэннинг, Уна Лоуренс, Энгаури Райс, Эддисон Рики, Эмма Ховард, Уэйн Пер, Мэтт Стори
О фильме:
Закрытый пансион для девушек был надежно спрятан от внешнего мира до того дня, пока искавший помощи и укрытия молодой человек не ступил за его ворота. С этого мгновения таинственный особняк оказался в плену рокового искушения…

Страна: США
Студия: American Zoetrope, FR Productions
Продолжительность: 01:33:08
Перевод: Дублированный | Blu-ray EUR
Файл
Качество: BDRemux 1080p
Формат: MKV
Кодек: MPEG-4 AVC
Видео: 1920x1080 (16:9), 23,976 fps, MPEG-4 AVC ~ 31,8 Мbps avg, 0.641 bit/pixel
Аудио: DTS, 48,0 kHz, 6 ch, ~768.00 kbps avg | русский | Blu-ray EUR
Аудио: AC3, 48,0 kHz, 6 ch, ~448.00 kbps avg | русский | Blu-ray EUR
Аудио: DTS-HD MA, 48,0 kHz, 6 ch, ~3398.00 kbps avg | английский | Оригинал
Субтитры: Русские, английские
Общее
Уникальный идентификатор : 207222879071128112178356724184926945065 (0x9BE5ACBF7701BAF88AF7E5DFF6E47F29)
Полное имя : D:TorrentsЗавершенныеThe.Beguiled.2017.1080p.BluRay.Remux.AVC.Rus.Eng.mkv
Формат : Matroska
Версия формата : Version 4 / Version 2
Размер файла : 23,7 Гбайт
Продолжительность : 1 ч. 33 м.
Режим общего битрейта : Переменный
Общий поток : 36,5 Мбит/сек
Название фильма : Роковое искушение (2017)
Дата кодирования : UTC 2017-11-23 08:41:09
Программа кодирования : mkvmerge v9.7.1 ('Pandemonium') 64bit
Библиотека кодирования : libebml v1.3.4 + libmatroska v1.4.5
Видео
Идентификатор : 1
Формат : AVC
Формат/Информация : Advanced Video Codec
Профиль формата : [email protected]
Параметр CABAC формата : Да
Параметр ReFrames формата : 4 кадра
Идентификатор кодека : V_MPEG4/ISO/AVC
Продолжительность : 1 ч. 33 м.
Вид битрейта : Переменный
Битрейт : 31,8 Мбит/сек
Максимальный битрейт : 35,0 Мбит/сек
Ширина : 1920 пикселей
Высота : 1080 пикселей
Соотношение сторон : 16:9
Режим частоты кадров : Постоянный
Частота кадров : 23,976 (24000/1001) кадра/сек
Цветовое пространство : YUV
Субдискретизация насыщенности : 4:2:0
Битовая глубина : 8 бит
Тип развёртки : Прогрессивная
Бит/(Пиксели*Кадры) : 0.641
Размер потока : 20,7 Гбайт (87%)
Заголовок : The.Beguiled.2017.1080p.BluRay.Remux.AVC.Rus.Eng
Язык : English
Default : Нет
Forced : Нет
Аудио #1
Идентификатор : 2
Формат : DTS
Формат/Информация : Digital Theater Systems
Режим : 16
Параметр Endianness формата : Big
Идентификатор кодека : A_DTS
Продолжительность : 1 ч. 33 м.
Вид битрейта : Постоянный
Битрейт : 768 Кбит/сек
Каналы : 6 каналов
Расположение каналов : Front: L C R, Side: L R, LFE
Частота : 48,0 КГц
Частота кадров : 93,750 кадра/сек (512 spf)
Битовая глубина : 24 бит
Метод сжатия : С потерями
Размер потока : 512 Мбайт (2%)
Заголовок : Blu-ray EUR
Язык : Russian
Default : Да
Forced : Нет
Аудио #2
Идентификатор : 3
Формат : AC-3
Формат/Информация : Audio Coding 3
Параметр Endianness формата : Big
Идентификатор кодека : A_AC3
Продолжительность : 1 ч. 33 м.
Вид битрейта : Постоянный
Битрейт : 448 Кбит/сек
Каналы : 6 каналов
Расположение каналов : Front: L C R, Side: L R, LFE
Частота : 48,0 КГц
Частота кадров : 31,250 кадров/сек (1536 spf)
Битовая глубина : 16 бит
Метод сжатия : С потерями
Размер потока : 298 Мбайт (1%)
Заголовок : Blu-ray EUR
Язык : Russian
Default : Нет
Forced : Нет
Аудио #3
Идентификатор : 4
Формат : DTS
Формат/Информация : Digital Theater Systems
Профиль формата : MA / Core
Режим : 16
Параметр Endianness формата : Big
Идентификатор кодека : A_DTS
Продолжительность : 1 ч. 33 м.
Вид битрейта : Переменный / Постоянный
Битрейт : 3398 Кбит/сек / 1509 Кбит/сек
Каналы : 6 каналов
Расположение каналов : Front: L C R, Side: L R, LFE
Частота : 48,0 КГц
Частота кадров : 93,750 кадра/сек (512 spf)
Битовая глубина : 24 бит
Метод сжатия : Без потерь / Lossy
Размер потока : 2,21 Гбайт (9%)
Язык : English
Default : Нет
Forced : Нет
Текст #1
Идентификатор : 5
Формат : UTF-8
Идентификатор кодека : S_TEXT/UTF8
Идентификатор кодека/Информация : UTF-8 Plain Text
Продолжительность : 23 м. 17 с.
Битрейт : 1 бит/сек
ElementCount : 5
Размер потока : 188 байт (0%)
Заголовок : Forc
Язык : Russian
Default : Да
Forced : Нет
Текст #2
Идентификатор : 6
Формат : UTF-8
Идентификатор кодека : S_TEXT/UTF8
Идентификатор кодека/Информация : UTF-8 Plain Text
Продолжительность : 1 ч. 26 м.
Битрейт : 68 бит/сек
ElementCount : 1091
Размер потока : 43,2 Кбайт (0%)
Заголовок : Full
Язык : Russian
Default : Нет
Forced : Нет
Текст #3
Идентификатор : 7
Формат : UTF-8
Идентификатор кодека : S_TEXT/UTF8
Идентификатор кодека/Информация : UTF-8 Plain Text
Продолжительность : 1 ч. 24 м.
Битрейт : 53 бит/сек
ElementCount : 1135
Размер потока : 33,5 Кбайт (0%)
Язык : English
Default : Нет
Forced : Нет
Текст #4
Идентификатор : 8
Формат : UTF-8
Идентификатор кодека : S_TEXT/UTF8
Идентификатор кодека/Информация : UTF-8 Plain Text
Продолжительность : 1 ч. 30 м.
Битрейт : 58 бит/сек
ElementCount : 1321
Размер потока : 38,3 Кбайт (0%)
Заголовок : SDH
Язык : English
Default : Нет
Forced : Нет
Меню
00:00:00.000 : en:Chapter 1
00:05:49.641 : en:Chapter 2
00:09:24.439 : en:Chapter 3
00:13:35.982 : en:Chapter 4
00:18:02.248 : en:Chapter 5
00:24:52.199 : en:Chapter 6
00:31:00.650 : en:Chapter 7
00:34:20.725 : en:Chapter 8
00:41:45.461 : en:Chapter 9
00:44:20.950 : en:Chapter 10
00:48:38.165 : en:Chapter 11
00:54:47.367 : en:Chapter 12
01:00:50.772 : en:Chapter 13
01:04:36.956 : en:Chapter 14
01:11:04.844 : en:Chapter 15
01:13:30.489 : en:Chapter 16
01:16:26.665 : en:Chapter 17
01:21:33.472 : en:Chapter 18
01:26:06.286 : en:Chapter 19
01:29:22.732 : en:Chapter 20



   Похожие торренты   Торрент   Размер 
В этой теме нет новых непрочитанных сообщений. Роковое искушение / The Beguiled (2017) BDRip 1080p | Лицензия

107 | 5

8.94 ГБ

В этой теме нет новых непрочитанных сообщений. Роковое искушение / The Beguiled (2017) BDRip 1080p от HDReactor | Лицензия

659 | 63

5.75 ГБ

В этой теме нет новых непрочитанных сообщений. Роковое искушение / The Beguiled (2017) BDRip от ExKinoRay | Лицензия

43 | 4

1.46 ГБ

В этой теме нет новых непрочитанных сообщений. Роковое искушение / The Beguiled (2017) BDRip 720p | Лицензия

81 | 6

5.24 ГБ

В этой теме нет новых непрочитанных сообщений. Роковое искушение / The Beguiled (2017) HDRip от MegaPeer | Лицензия

64 | 3

744.82 МБ

В этой теме нет новых непрочитанных сообщений. Роковое искушение / The Beguiled (2017) BDRip-AVC от ExKinoRay | Лицензия

44 | 1

1.53 ГБ

В этой теме нет новых непрочитанных сообщений. Роковое искушение / The Beguiled (2017) BDRip от MegaPeer | Лицензия

2077 | 37

1.45 ГБ




Вы не можете начинать темы
Вы не можете отвечать на сообщения
Вы не можете редактировать свои сообщения
Вы не можете удалять свои сообщения
Вы не можете добавлять вложения

Перейти:  
Для Мосгорсуда, Роскомнадзора и рекламодателей: mosgorsud-torrent[собачка]yandex.ru
 Вход
ppkBB3cker v.2 © 2008-2014 @ PPK
[ Time : 2.106s | 20 Queries | GZIP : Off ]

cron