img image001 image001 image001 image001 image001 image001 image001 image001 image001 image001 image001 image001 image001 image001 image001

Planets Sun Sun Sun
Статистика раздачи
Автор: Nickolas3434 | Размер: 22.58 ГБ | Добавлен: 08 ноя 2017
Раздают: 3    Качают: 0
Скачать торрент
Скачать торрент
Описание торрента

СообщениеДобавлено: 08 ноя 2017 

Информация о фильме
Название: Туки-Буки
Оригинальное название: Touki bouki
Год выхода: 1973
Жанр: драма
Режиссер: Джибрил Диоп Мамбети
В ролях: Магайе Ньян, Марем Ньян, Амината Фолл, Ousseynou Diop, Джозефин Бейкер, Кристоф Коломб, Ndou Labia, Mustapha Ture
Описание: Моури, пастух, который ездит на мотоцикле, украшенном черепом коровы, и Анта, студентка, встретились в Дакаре, столице Сенегала. Отверженные и разочарованные Сенегалом и Африкой, они стремятся попасть в Париж и разрабатывают различные мошеннические схемы, чтобы заработать денег.

Страна: Сенегал
Продолжительность: 01:30:37
Перевод: Перевод: Любительский (одноголосый закадровый) Олег Воротилин
Субтитры: русские Elk, русские bezumnypiero, английские
Оригинальная аудиодорожка: сенегальский
Файл
Качество: BDRemux 1080р
Видео: AVC / 1920x1080 / 16:9 / 23.976 fps / 34353 Kbps / [email protected]
Аудио 1: Rus: AC3 / 48.0 KHz / 1.0 / 192 kbps / VO / Олег Воротилин
Аудио 2: Rus: FLAC / 48.0 KHz / 1.0 / 577 kbps / 24 bit / VO / Олег Воротилин
Аудио 3: Wol: FLAC / 48.0 KHz / 1.0 / 555kbps / 24 bit

Общее
Уникальный идентификатор : 174132645162897755548698690209168316620 (0x8300BA4177BCC6E997C68694327558CC)
Полное имя : Journey.of.the.Hyena.1973.Criterion.Collection.BDRemux.1080p.mkv
Формат : Matroska
Версия формата : Version 4 / Version 2
Размер файла : 22,6 Гбайт
Продолжительность : 1 ч. 30 м.
Режим общего битрейта : Переменный
Общий поток : 35,7 Мбит/сек
Название фильма : Journey.of.the.Hyena.1973.Criterion.Collection.BDRemux.1080p-porvaliparus
Дата кодирования : UTC 2017-11-07 04:46:51
Программа кодирования : mkvmerge v17.0.0 ('Be Ur Friend') 64-bit
Библиотека кодирования : libebml v1.3.5 + libmatroska v1.4.8
Видео
Идентификатор : 1
Формат : AVC
Формат/Информация : Advanced Video Codec
Профиль формата : [email protected]
Настройки формата : CABAC / 4 Ref Frames
Параметр CABAC формата : Да
Параметр RefFrames формата : 4 кадра
Идентификатор кодека : V_MPEG4/ISO/AVC
Продолжительность : 1 ч. 30 м.
Вид битрейта : Переменный
Битрейт : 34,4 Мбит/сек
Максимальный битрейт : 37,0 Мбит/сек
Ширина : 1920 пикселей
Высота : 1080 пикселей
Соотношение сторон : 16:9
Режим частоты кадров : Постоянный
Частота кадров : 23,976 (24000/1001) кадра/сек
Цветовое пространство : YUV
Субдискретизация насыщенности : 4:2:0
Битовая глубина : 8 бит
Тип развёртки : Прогрессивная
Бит/(Пиксели*Кадры) : 0.691
Размер потока : 21,7 Гбайт (96%)
Заголовок : Journey.of.the.Hyena.1973.Criterion.Collection.BDRemux.1080p
Default : Да
Forced : Нет
Аудио #1
Идентификатор : 2
Формат : AC-3
Формат/Информация : Audio Coding 3
Идентификатор кодека : A_AC3
Продолжительность : 1 ч. 30 м.
Вид битрейта : Постоянный
Битрейт : 192 Кбит/сек
Каналы : 1 канал
Расположение каналов : Front: C
Частота : 48,0 КГц
Частота кадров : 31,250 кадров/сек (1536 SPF)
Битовая глубина : 16 бит
Метод сжатия : С потерями
Размер потока : 124 Мбайт (1%)
Заголовок : VO [О. Воротилин]
Язык : Russian
Default : Да
Forced : Нет
Аудио #2
Идентификатор : 3
Формат : FLAC
Формат/Информация : Free Lossless Audio Codec
Идентификатор кодека : A_FLAC
Продолжительность : 1 ч. 30 м.
Вид битрейта : Переменный
Битрейт : 577 Кбит/сек
Каналы : 1 канал
Расположение каналов : Front: C
Частота : 48,0 КГц
Частота кадров : 11,719 кадров/сек (4096 SPF)
Битовая глубина : 24 бит
Размер потока : 374 Мбайт (2%)
Заголовок : VO [О. Воротилин]
Библиотека кодирования : libFLAC 20080709 (UTC 2008-07-09)
Язык : Russian
Default : Нет
Forced : Нет
Аудио #3
Идентификатор : 4
Формат : FLAC
Формат/Информация : Free Lossless Audio Codec
Идентификатор кодека : A_FLAC
Продолжительность : 1 ч. 30 м.
Вид битрейта : Переменный
Битрейт : 555 Кбит/сек
Каналы : 1 канал
Расположение каналов : Front: C
Частота : 48,0 КГц
Частота кадров : 11,719 кадров/сек (4096 SPF)
Битовая глубина : 24 бит
Размер потока : 360 Мбайт (2%)
Библиотека кодирования : libFLAC 20080709 (UTC 2008-07-09)
Язык : Wolof
Default : Нет
Forced : Нет
Текст #1
Идентификатор : 5
Формат : UTF-8
Идентификатор кодека : S_TEXT/UTF8
Идентификатор кодека/Информация : UTF-8 Plain Text
Продолжительность : 1 ч. 23 м.
Битрейт : 35 бит/сек
ElementCount : 376
Размер потока : 21,9 Кбайт (0%)
Заголовок : Elk
Язык : Russian
Default : Нет
Forced : Нет
Текст #2
Идентификатор : 6
Формат : UTF-8
Идентификатор кодека : S_TEXT/UTF8
Идентификатор кодека/Информация : UTF-8 Plain Text
Продолжительность : 1 ч. 28 м.
Битрейт : 34 бит/сек
ElementCount : 377
Размер потока : 22,6 Кбайт (0%)
Заголовок : bezumnypiero
Язык : Russian
Default : Нет
Forced : Нет
Текст #3
Идентификатор : 7
Формат : UTF-8
Идентификатор кодека : S_TEXT/UTF8
Идентификатор кодека/Информация : UTF-8 Plain Text
Продолжительность : 1 ч. 28 м.
Битрейт : 20 бит/сек
ElementCount : 398
Размер потока : 13,1 Кбайт (0%)
Язык : English
Default : Нет
Forced : Нет
Меню
00:00:00.000 : en:00:00:00.000
00:06:03.029 : en:00:06:03.029
00:10:33.257 : en:00:10:33.257
00:13:36.482 : en:00:13:36.482
00:18:09.046 : en:00:18:09.046
00:24:54.743 : en:00:24:54.743
00:28:43.388 : en:00:28:43.388
00:34:25.646 : en:00:34:25.646
00:39:14.060 : en:00:39:14.060
00:43:11.588 : en:00:43:11.588
00:48:04.339 : en:00:48:04.339
00:56:29.427 : en:00:56:29.427
01:01:59.757 : en:01:01:59.757
01:06:08.589 : en:01:06:08.589
01:08:54.004 : en:01:08:54.004
01:13:25.734 : en:01:13:25.734
01:16:14.361 : en:01:16:14.361
01:22:33.531 : en:01:22:33.531



   Похожие торренты   Торрент   Размер 
В этой теме нет новых непрочитанных сообщений. Мусаси Миямото / Miyamoto Musashi (1973) BDRemux 1080р | L1

1 | 0

40.49 ГБ

В этой теме нет новых непрочитанных сообщений. А теперь не смотри / Don't Look Now (1973) BDRemux 1080р | P, P2, A | Criterion Collection

0 | 0

19.66 ГБ

В этой теме нет новых непрочитанных сообщений. Река Титаш / Titash Ekti Nadir Naam (1973) BDRemux 1080р | L1

2 | 1

23.46 ГБ

В этой теме нет новых непрочитанных сообщений. Скорпион: Песня ненависти №701 / Joshû sasori: 701-gô urami-bushi (1973) BDRemux 1080р | L1

3 | 4

22.61 ГБ

В этой теме нет новых непрочитанных сообщений. Печальная Белладонна / Kanashimi no Belladonna / Belladonna of Sadness (1973) BDRemux 1080р | L1

2 | 0

19.25 ГБ

В этой теме нет новых непрочитанных сообщений. Буки - Тишина в эфире (2015) MP3

55 | 1

144.67 МБ

В этой теме нет новых непрочитанных сообщений. Калина красная (1973) WEB-DLRip 1080р от Korsar

10 | 1

6.53 ГБ




Вы не можете начинать темы
Вы не можете отвечать на сообщения
Вы не можете редактировать свои сообщения
Вы не можете удалять свои сообщения
Вы не можете добавлять вложения

Перейти:  
Для Мосгорсуда, Роскомнадзора и рекламодателей: mosgorsud-torrent[собачка]yandex.ru
 Вход
ppkBB3cker v.2 © 2008-2014 @ PPK
[ Time : 0.051s | 19 Queries | GZIP : Off ]

cron