img image001 image001 image001 image001 image001 image001 image001 image001 image001 image001 image001 image001 image001 image001 image001

Planets Sun Sun Sun
Статистика раздачи
Автор: PriZraK | Размер: 1.45 ГБ | Добавлен: 26 авг 2016
Раздают: 18    Качают: 4
Скачать торрент
Скачать торрент
Описание торрента

СообщениеДобавлено: 26 авг 2016 


Информация о фильме
Название: Казанова 70
Оригинальное название: Casanova '70
Год выхода: 1965
Жанр: Комедия, драма
Режиссер: Марио Моничелли
В ролях: Марчелло Мастроянни, Вирна Лизи, Мариза Мелл, Мишель Мерсье, Энрико Мария Салерно, Лиана Орфей, Гуидо Альберти, Беба Лончар, Мойра Орфей, Маргарет Ли
О фильме:
Для майора Росси соблазнение являлось обычным и простым занятием, женщины становились легкой добычей в его руках. Но после бурного расставания с одной из подружек, которая в пылу гнева публично называет его импотентом, Андре обнаруживает, что она почти права — он уже не жеребец, готовый к совокуплению при любых обстоятельствах. Теперь он способен вступать в интимную связь с женщиной только когда ему что-то угрожает. Психоаналитик советует перейти к исключительно платоническим отношениям, но современный Казанова предпочитает постоянно пребывать в поисках опасных наслаждений.

Страна: Италия, Франция
Студия: Compagnia Cinematografica Champion, Euro International Film (EIA), Les Films Concordia
Продолжительность: 01:55:21
Перевод: Профессиональный двухголосый
Файл
Качество: BDRip (CASANOVA_70_1965_REMUX_HDCLUB)
Видео: XviD, 1596 Кбит/с, 704x376, 23.976 кадр/с
Звук: AC3, 2 ch, 192 Кбит/с
Общее
Полное имя : Casanova.70.1965.BDRip.avi
Формат : AVI
Формат/Информация : Audio Video Interleave
Размер файла : 1,45 Гбайт
Продолжительность : 1 ч. 55 м.
Общий поток : 1797 Кбит/сек
Программа кодирования : VirtualDubMod 1.5.10.2 (build 2540/release)
Библиотека кодирования : VirtualDubMod build 2540/release
Видео
Идентификатор : 0
Формат : MPEG-4 Visual
Профиль формата : Advanced [email protected]
Параметр BVOP формата : 1
Параметр QPel формата : Нет
Параметр GMC формата : Без точки перехода
Параметр матрицы формата : Default (MPEG)
Идентификатор кодека : XVID
Идентификатор кодека/Подсказка : XviD
Продолжительность : 1 ч. 55 м.
Битрейт : 1596 Кбит/сек
Ширина : 704 пикселя
Высота : 376 пикселей
Соотношение сторон : 1,85:1
Частота кадров : 23,976 (23976/1000) кадра/сек
Цветовое пространство : YUV
Субдискретизация насыщенности : 4:2:0
Битовая глубина : 8 бит
Тип развёртки : Прогрессивная
Метод сжатия : С потерями
Бит/(Пиксели*Кадры) : 0.251
Размер потока : 1,29 Гбайт (89%)
Библиотека кодирования : XviD 1.2.0.dev47 (UTC 2006-11-01)
Аудио
Идентификатор : 1
Формат : AC-3
Формат/Информация : Audio Coding 3
Расширение режима : CM (complete main)
Параметр Endianness формата : Big
Идентификатор кодека : 2000
Продолжительность : 1 ч. 55 м.
Вид битрейта : Постоянный
Битрейт : 192 Кбит/сек
Каналы : 2 канала
Расположение каналов : Front: L R
Частота : 48,0 КГц
Частота кадров : 31,250 кадров/сек (1536 spf)
Метод сжатия : С потерями
Размер потока : 158 Мбайт (11%)
Выравнивание : Разделение по промежуткам
Продолжительность промежутка : 42 мс. (1,00 видеокадр)
Время предзагрузки промежутка : 500 мс.



   Похожие торренты   Торрент   Размер 
В этой теме нет новых непрочитанных сообщений. Казанова 70 / Casanova '70 (1965) BDRip 1080p | P2

60 | 20

10.44 ГБ

В этой теме нет новых непрочитанных сообщений. Казанова 70 / Casanova '70 (1965) BDRip от ExKinoRay | P2

53 | 7

2.04 ГБ

В этой теме нет новых непрочитанных сообщений. Казанова 70 / Casanova 70 (1965) DVDRip от olegek70

5 | 6

1.46 ГБ

В этой теме нет новых непрочитанных сообщений. Казанова 70 / Casanova '70 (1965) HDRip от MegaPeer | P2

41 | 12

1.46 ГБ

В этой теме нет новых непрочитанных сообщений. Казанова 70 / Casanova '70 (1965) HDTVRip-AVC от Тorrent-Хzona

4 | 2

1.5 ГБ

В этой теме нет новых непрочитанных сообщений. 13 женщин для Казановы / Казанова и компания / 13 femmes pour Casanova / Casanova & Co. (1977) DVDRip

377 | 120

1.35 ГБ

В этой теме нет новых непрочитанных сообщений. 13 женщин для Казановы / Казанова и компания / 13 femmes pour Casanova / Casanova & Co. (1977) DVDRip от KinoRay & Sheikn | A

617 | 29

1.45 ГБ




Вы не можете начинать темы
Вы не можете отвечать на сообщения
Вы не можете редактировать свои сообщения
Вы не можете удалять свои сообщения
Вы не можете добавлять вложения

Перейти:  
Для Мосгорсуда, Роскомнадзора и рекламодателей: mosgorsud-torrent[собачка]yandex.ru
 Вход
ppkBB3cker v.2 © 2008-2014 @ PPK
[ Time : 0.046s | 18 Queries | GZIP : Off ]

cron