img image001 image001 image001 image001 image001 image001 image001 image001 image001 image001 image001 image001 image001 image001 image001

Planets Sun Sun Sun
Статистика раздачи
Автор: Nickolas3434 | Размер: 6.86 ГБ | Добавлен: 28 авг 2014
Раздают: 27    Качают: 14
Скачать торрент
Скачать торрент
Описание торрента

СообщениеДобавлено: 28 авг 2014 


Информация о фильме
Название: Сыновья Кэти Элдер
Оригинальное название: The Sons of Katie Elder
Год выхода: 1965
Жанр: Вестерн
Режиссер: Генри Хэтэуэй
В ролях: Джон Уэйн, Дин Мартин, Марта Хайер, Майкл Андерсон мл., Эрл Холлиман, Джереми Слейт, Джеймс Грегори, Пол Фикс, Джордж Кеннеди, Дэннис Хоппер, Шелдон Эллман, Джон Лител, Джон Дусетт, Джеймс Уэстерфилд, Рис Уильямс, Джон Кволен, Родольфо Акоста
О фильме: Четверо братьев Элдеров приезжают в Техас на похороны матери. Здесь они узнают, что родительское ранчо им не принадлежит, поскольку их отец, будучи сильно пьяным, якобы проиграл его в карты некоему Гастингсу, вскоре, после чего был убит. Братья подозревают, что в этой истории что-то нечисто, но местный шериф настоятельно рекомендует им не впутываться в это дело.

Страна: США
Студия: Hal Wallis Productions, Paramount Pictures
Продолжительность: 01:56:48
Перевод: Профессиональный многоголосый
Файл
Кодек: MPEG-2
Качество: DVD-9
Видео: PAL 16:9 (720x576) VBR
Звук: Русский, английский, немецкий (Dolby AC3, 2 ch)
Title: DATA
Size: 6.86 Gb ( 7 190 502 KBytes ) - DVD-9
Enabled regions: 1, 2, 3, 4, 5, 6, 7, 8
VTS_01 :
Play Length: 01:56:48
Video: PAL 16:9 (720x576) VBR, Auto Pan&Scan
Audio:
Russian (Dolby AC3, 2 ch)
English (Dolby AC3, 2 ch)
Deutsch (Dolby AC3, 2 ch)
Menu Video:
PAL 4:3 (704x576) VBR
Menu English Language Unit :
Root Menu
Общее
Полное имя : D:залитьСЫНОВЬЯ КЭТИ ЭЛДЕРVIDEO_TSVTS_01_1.VOB
Формат : MPEG-PS
Размер файла : 1000 Мбайт
Продолжительность : 15 м.
Режим общего битрейта : Переменный
Общий поток : 8856 Кбит/сек
Видео
Идентификатор : 224 (0xE0)
Формат : MPEG Video
Версия формата : Version 2
Профиль формата : [email protected]
Параметр BVOP формата : Да
Параметр матрицы формата : Выборочная
Параметр GOP формата : M=3, N=12
Продолжительность : 15 м.
Вид битрейта : Переменный
Битрейт : 8104 Кбит/сек
Максимальный битрейт : 8500 Кбит/сек
Ширина : 720 пикселей
Высота : 576 пикселей
Соотношение сторон : 2,40:1
Частота кадров : 25,000 кадров/сек
Стандарт вещания : PAL
Цветовое пространство : YUV
Субдискретизация насыщенности : 4:2:0
Битовая глубина : 8 бит
Тип развёртки : Чересстрочная
Порядок развёртки : Верхнее поле первое
Метод сжатия : С потерями
Бит/(Пиксели*Кадры) : 0.782
TimeCode_FirstFrame : 00:59:59:12
TimeCode_Source : Group of pictures header
Размер потока : 915 Мбайт (92%)
Аудио #1
Идентификатор : 189 (0xBD)-128 (0x80)
Формат : AC-3
Формат/Информация : Audio Coding 3
Расширение режима : CM (complete main)
Параметр Endianness формата : Big
Режим смешивания : DVD-Video
Продолжительность : 15 м.
Вид битрейта : Постоянный
Битрейт : 192 Кбит/сек
Каналы : 2 канала
Расположение каналов : Front: L R
Частота : 48,0 КГц
Битовая глубина : 16 бит
Метод сжатия : С потерями
Размер потока : 21,7 Мбайт (2%)
Аудио #2
Идентификатор : 189 (0xBD)-129 (0x81)
Формат : AC-3
Формат/Информация : Audio Coding 3
Расширение режима : CM (complete main)
Параметр Endianness формата : Big
Режим смешивания : DVD-Video
Продолжительность : 15 м.
Вид битрейта : Постоянный
Битрейт : 192 Кбит/сек
Каналы : 2 канала
Расположение каналов : Front: L R
Частота : 48,0 КГц
Битовая глубина : 16 бит
Метод сжатия : С потерями
Размер потока : 21,7 Мбайт (2%)
Аудио #3
Идентификатор : 189 (0xBD)-130 (0x82)
Формат : AC-3
Формат/Информация : Audio Coding 3
Расширение режима : CM (complete main)
Параметр Endianness формата : Big
Режим смешивания : DVD-Video
Продолжительность : 15 м.
Вид битрейта : Постоянный
Битрейт : 192 Кбит/сек
Каналы : 2 канала
Расположение каналов : Front: L R
Частота : 48,0 КГц
Битовая глубина : 16 бит
Метод сжатия : С потерями
Размер потока : 21,7 Мбайт (2%)
Меню



   Похожие торренты   Торрент   Размер 
В этой теме нет новых непрочитанных сообщений. Сыновья Кэти Элдер / The Sons of Katie Elder (1965) WEBRip от Koenig

28 | 9

1.45 ГБ

В этой теме нет новых непрочитанных сообщений. Сыновья Анархии / Сыны Анархии / Sons of Anarchy [S01] (2008) HDTVRip от LostFilm

1003 | 146

6.04 ГБ

В этой теме нет новых непрочитанных сообщений. Сыны Анархии (Сыновья Анархии) / Sons of Anarchy [S01] (2008) BDRip

13 | 9

11.59 ГБ

В этой теме нет новых непрочитанных сообщений. Сыны Анархии (Сыновья Анархии) / Sons of Anarchy [S07] (2014) WEB-DL 720p от MediaClub | Amedia

39 | 28

28.4 ГБ

В этой теме нет новых непрочитанных сообщений. Сыновья Большой Медведицы / Sohne der grossen Barin, Die (1965) DVDRip | Реставрация

21 | 5

1.36 ГБ

В этой теме нет новых непрочитанных сообщений. Сыновья человека с каменным сердцем / A köszívü ember fiaii (1965) DVDRip от Files-x

6 | 3

2.44 ГБ

В этой теме нет новых непрочитанных сообщений. Элдер Александр - Основы биржевой торговли (2013) PDF

71 | 2

3.39 МБ




Вы не можете начинать темы
Вы не можете отвечать на сообщения
Вы не можете редактировать свои сообщения
Вы не можете удалять свои сообщения
Вы не можете добавлять вложения

Перейти:  
Для Мосгорсуда, Роскомнадзора и рекламодателей: mosgorsud-torrent[собачка]yandex.ru
 Вход
ppkBB3cker v.2 © 2008-2014 @ PPK
[ Time : 2.678s | 17 Queries | GZIP : Off ]

cron